  0
SECTION
  2
HEADER
  9
$ACADVER
  1
AC1015
  9
$ACADMAINTVER
 70
    20
  9
$DWGCODEPAGE
  3
ANSI_932
  9
$INSBASE
 10
0.0
 20
0.0
 30
0.0
  9
$EXTMIN
 10
-0.2127903344644437
 20
-0.1505255115312138
 30
-0.000000000000013
  9
$EXTMAX
 10
2789.511174014327
 20
1973.269121685511
 30
0.0000000000000023
  9
$LIMMIN
 10
0.0
 20
0.0
  9
$LIMMAX
 10
297.0
 20
209.0
  9
$ORTHOMODE
 70
     1
  9
$REGENMODE
 70
     1
  9
$FILLMODE
 70
     1
  9
$QTEXTMODE
 70
     0
  9
$MIRRTEXT
 70
     1
  9
$LTSCALE
 40
1.0
  9
$ATTMODE
 70
     1
  9
$TEXTSIZE
 40
2.5
  9
$TRACEWID
 40
1.0
  9
$TEXTSTYLE
  7
Standard
  9
$CLAYER
  8
寸法線
  9
$CELTYPE
  6
ByLayer
  9
$CECOLOR
 62
   256
  9
$CELTSCALE
 40
3.0
  9
$DISPSILH
 70
     0
  9
$DIMSCALE
 40
10.0
  9
$DIMASZ
 40
1.5
  9
$DIMEXO
 40
2.0
  9
$DIMDLI
 40
3.75
  9
$DIMRND
 40
0.0
  9
$DIMDLE
 40
0.0
  9
$DIMEXE
 40
1.5
  9
$DIMTP
 40
0.0
  9
$DIMTM
 40
0.0
  9
$DIMTXT
 40
3.0
  9
$DIMCEN
 40
2.5
  9
$DIMTSZ
 40
0.0
  9
$DIMTOL
 70
     0
  9
$DIMLIM
 70
     0
  9
$DIMTIH
 70
     0
  9
$DIMTOH
 70
     0
  9
$DIMSE1
 70
     0
  9
$DIMSE2
 70
     0
  9
$DIMTAD
 70
     1
  9
$DIMZIN
 70
     8
  9
$DIMBLK
  1
Open30
  9
$DIMASO
 70
     1
  9
$DIMSHO
 70
     1
  9
$DIMPOST
  1

  9
$DIMAPOST
  1

  9
$DIMALT
 70
     0
  9
$DIMALTD
 70
     3
  9
$DIMALTF
 40
0.03937007874016
  9
$DIMLFAC
 40
1.0
  9
$DIMTOFL
 70
     1
  9
$DIMTVP
 40
0.0
  9
$DIMTIX
 70
     0
  9
$DIMSOXD
 70
     0
  9
$DIMSAH
 70
     0
  9
$DIMBLK1
  1

  9
$DIMBLK2
  1

  9
$DIMSTYLE
  2
ISO-25
  9
$DIMCLRD
 70
     0
  9
$DIMCLRE
 70
     0
  9
$DIMCLRT
 70
     0
  9
$DIMTFAC
 40
1.0
  9
$DIMGAP
 40
0.5
  9
$DIMJUST
 70
     0
  9
$DIMSD1
 70
     0
  9
$DIMSD2
 70
     0
  9
$DIMTOLJ
 70
     0
  9
$DIMTZIN
 70
     8
  9
$DIMALTZ
 70
     0
  9
$DIMALTTZ
 70
     0
  9
$DIMUPT
 70
     0
  9
$DIMDEC
 70
     2
  9
$DIMTDEC
 70
     2
  9
$DIMALTU
 70
     2
  9
$DIMALTTD
 70
     3
  9
$DIMTXSTY
  7
Standard
  9
$DIMAUNIT
 70
     0
  9
$DIMADEC
 70
     0
  9
$DIMALTRND
 40
0.0
  9
$DIMAZIN
 70
     0
  9
$DIMDSEP
 70
    46
  9
$DIMATFIT
 70
     0
  9
$DIMFRAC
 70
     0
  9
$DIMLDRBLK
  1
Open30
  9
$DIMLUNIT
 70
     2
  9
$DIMLWD
 70
    -2
  9
$DIMLWE
 70
    -2
  9
$DIMTMOVE
 70
     0
  9
$LUNITS
 70
     2
  9
$LUPREC
 70
     4
  9
$SKETCHINC
 40
1.0
  9
$FILLETRAD
 40
9.9
  9
$AUNITS
 70
     0
  9
$AUPREC
 70
     0
  9
$MENU
  1
.
  9
$ELEVATION
 40
0.0
  9
$PELEVATION
 40
0.0
  9
$THICKNESS
 40
0.0
  9
$LIMCHECK
 70
     0
  9
$CHAMFERA
 40
10.0
  9
$CHAMFERB
 40
10.0
  9
$CHAMFERC
 40
20.0
  9
$CHAMFERD
 40
0.0
  9
$SKPOLY
 70
     0
  9
$TDCREATE
 40
2453510.558637211
  9
$TDUCREATE
 40
2453510.183637211
  9
$TDUPDATE
 40
2457529.725957731
  9
$TDUUPDATE
 40
2457529.350957731
  9
$TDINDWG
 40
0.1235381944
  9
$TDUSRTIMER
 40
0.1235381713
  9
$USRTIMER
 70
     1
  9
$ANGBASE
 50
0.0
  9
$ANGDIR
 70
     0
  9
$PDMODE
 70
     0
  9
$PDSIZE
 40
0.0
  9
$PLINEWID
 40
0.0
  9
$SPLFRAME
 70
     0
  9
$SPLINETYPE
 70
     6
  9
$SPLINESEGS
 70
     8
  9
$HANDSEED
  5
2C05
  9
$SURFTAB1
 70
     6
  9
$SURFTAB2
 70
     6
  9
$SURFTYPE
 70
     6
  9
$SURFU
 70
     6
  9
$SURFV
 70
     6
  9
$UCSBASE
  2

  9
$UCSNAME
  2

  9
$UCSORG
 10
0.0
 20
0.0
 30
0.0
  9
$UCSXDIR
 10
1.0
 20
0.0
 30
0.0
  9
$UCSYDIR
 10
0.0
 20
1.0
 30
0.0
  9
$UCSORTHOREF
  2

  9
$UCSORTHOVIEW
 70
     0
  9
$UCSORGTOP
 10
0.0
 20
0.0
 30
0.0
  9
$UCSORGBOTTOM
 10
0.0
 20
0.0
 30
0.0
  9
$UCSORGLEFT
 10
0.0
 20
0.0
 30
0.0
  9
$UCSORGRIGHT
 10
0.0
 20
0.0
 30
0.0
  9
$UCSORGFRONT
 10
0.0
 20
0.0
 30
0.0
  9
$UCSORGBACK
 10
0.0
 20
0.0
 30
0.0
  9
$PUCSBASE
  2

  9
$PUCSNAME
  2

  9
$PUCSORG
 10
0.0
 20
0.0
 30
0.0
  9
$PUCSXDIR
 10
1.0
 20
0.0
 30
0.0
  9
$PUCSYDIR
 10
0.0
 20
1.0
 30
0.0
  9
$PUCSORTHOREF
  2

  9
$PUCSORTHOVIEW
 70
     0
  9
$PUCSORGTOP
 10
0.0
 20
0.0
 30
0.0
  9
$PUCSORGBOTTOM
 10
0.0
 20
0.0
 30
0.0
  9
$PUCSORGLEFT
 10
0.0
 20
0.0
 30
0.0
  9
$PUCSORGRIGHT
 10
0.0
 20
0.0
 30
0.0
  9
$PUCSORGFRONT
 10
0.0
 20
0.0
 30
0.0
  9
$PUCSORGBACK
 10
0.0
 20
0.0
 30
0.0
  9
$USERI1
 70
     0
  9
$USERI2
 70
     0
  9
$USERI3
 70
     0
  9
$USERI4
 70
     0
  9
$USERI5
 70
     0
  9
$USERR1
 40
0.0
  9
$USERR2
 40
0.0
  9
$USERR3
 40
0.0
  9
$USERR4
 40
0.0
  9
$USERR5
 40
0.0
  9
$WORLDVIEW
 70
     1
  9
$SHADEDGE
 70
     3
  9
$SHADEDIF
 70
    70
  9
$TILEMODE
 70
     1
  9
$MAXACTVP
 70
    48
  9
$PINSBASE
 10
0.0
 20
0.0
 30
0.0
  9
$PLIMCHECK
 70
     0
  9
$PEXTMIN
 10
0.0
 20
0.0
 30
0.0
  9
$PEXTMAX
 10
0.0
 20
0.0
 30
0.0
  9
$PLIMMIN
 10
0.0
 20
0.0
  9
$PLIMMAX
 10
12.0
 20
9.0
  9
$UNITMODE
 70
     0
  9
$VISRETAIN
 70
     1
  9
$PLINEGEN
 70
     0
  9
$PSLTSCALE
 70
     1
  9
$TREEDEPTH
 70
  3020
  9
$CMLSTYLE
  2
Standard
  9
$CMLJUST
 70
     0
  9
$CMLSCALE
 40
20.0
  9
$PROXYGRAPHICS
 70
     1
  9
$MEASUREMENT
 70
     1
  9
$CELWEIGHT
370
    -1
  9
$ENDCAPS
280
     0
  9
$JOINSTYLE
280
     0
  9
$LWDISPLAY
290
     0
  9
$INSUNITS
 70
     4
  9
$HYPERLINKBASE
  1

  9
$STYLESHEET
  1
MONOCHROME.CTB
  9
$XEDIT
290
     1
  9
$CEPSNTYPE
380
     0
  9
$PSTYLEMODE
290
     1
  9
$FINGERPRINTGUID
  2

  9
$VERSIONGUID
  2
{8142C841-DA79-4C62-B17B-C0A05EFDFC61}
  9
$EXTNAMES
290
     1
  9
$PSVPSCALE
 40
0.0
  9
$OLESTARTUP
290
     0
  0
ENDSEC
  0
SECTION
  2
CLASSES
  0
CLASS
  1
ACDBDICTIONARYWDFLT
  2
AcDbDictionaryWithDefault
  3
ObjectDBX Classes
 90
        0
280
     0
281
     0
  0
CLASS
  1
ACDBPLACEHOLDER
  2
AcDbPlaceHolder
  3
ObjectDBX Classes
 90
        0
280
     0
281
     0
  0
CLASS
  1
LAYOUT
  2
AcDbLayout
  3
ObjectDBX Classes
 90
        0
280
     0
281
     0
  0
CLASS
  1
DICTIONARYVAR
  2
AcDbDictionaryVar
  3
ObjectDBX Classes
 90
        0
280
     0
281
     0
  0
CLASS
  1
MATERIAL
  2
AcDbMaterial
  3
ObjectDBX Classes
 90
     1153
280
     0
281
     0
  0
CLASS
  1
VISUALSTYLE
  2
AcDbVisualStyle
  3
ObjectDBX Classes
 90
     4095
280
     0
281
     0
  0
CLASS
  1
TABLESTYLE
  2
AcDbTableStyle
  3
ObjectDBX Classes
 90
     4095
280
     0
281
     0
  0
CLASS
  1
SCALE
  2
AcDbScale
  3
ObjectDBX Classes
 90
     1153
280
     0
281
     0
  0
CLASS
  1
MLEADERSTYLE
  2
AcDbMLeaderStyle
  3
ACDB_MLEADERSTYLE_CLASS
 90
     4095
280
     0
281
     0
  0
CLASS
  1
ACDBSECTIONVIEWSTYLE
  2
AcDbSectionViewStyle
  3
ObjectDBX Classes
 90
     1025
280
     0
281
     0
  0
CLASS
  1
ACDBDETAILVIEWSTYLE
  2
AcDbDetailViewStyle
  3
ObjectDBX Classes
 90
     1025
280
     0
281
     0
  0
CLASS
  1
CELLSTYLEMAP
  2
AcDbCellStyleMap
  3
ObjectDBX Classes
 90
     1152
280
     0
281
     0
  0
CLASS
  1
ACARRAYJIGENTITY
  2
AcArrayJigEntity
  3
ACAD_ARRAY
 90
      129
280
     0
281
     1
  0
CLASS
  1
ACDBASSOCNETWORK
  2
AcDbAssocNetwork
  3
ObjectDBX Classes
 90
     1025
280
     0
281
     0
  0
CLASS
  1
ACDBASSOCACTION
  2
AcDbAssocAction
  3
ObjectDBX Classes
 90
     1025
280
     0
281
     0
  0
CLASS
  1
ACDBASSOCARRAYACTIONBODY
  2
AcDbAssocArrayActionBody
  3
ObjectDBX Classes
 90
     1025
280
     0
281
     0
  0
CLASS
  1
ACDBASSOCVERTEXACTIONPARAM
  2
AcDbAssocVertexActionParam
  3
ObjectDBX Classes
 90
     1025
280
     0
281
     0
  0
CLASS
  1
ACDBASSOCDEPENDENCY
  2
AcDbAssocDependency
  3
ObjectDBX Classes
 90
     1025
280
     0
281
     0
  0
CLASS
  1
ACDBASSOCARRAYRECTANGULARPARAMETERS
  2
AcDbAssocArrayRectangularParameters
  3
ObjectDBX Classes
 90
    33793
280
     0
281
     0
  0
CLASS
  1
SORTENTSTABLE
  2
AcDbSortentsTable
  3
ObjectDBX Classes
 90
        0
280
     0
281
     0
  0
ENDSEC
  0
SECTION
  2
TABLES
  0
TABLE
  2
VPORT
  5
55A
102
{ACAD_XDICTIONARY
360
1A23
102
}
330
0
100
AcDbSymbolTable
 70
     1
  0
VPORT
  5
12DA
330
55A
100
AcDbSymbolTableRecord
100
AcDbViewportTableRecord
  2
*Active
 70
     0
 10
0.0
 20
0.0
 11
1.0
 21
1.0
 12
1394.649191839931
 22
986.5592980869898
 13
0.0
 23
0.0
 14
10.0
 24
10.0
 15
10.0
 25
10.0
 16
0.0
 26
0.0
 36
1.0
 17
0.0
 27
0.0
 37
0.0
 40
1990.4809121584
 41
1.754689754689754
 42
50.0
 43
0.0
 44
0.0
 50
0.0
 51
0.0
 71
     0
 72
   100
 73
     1
 74
     3
 75
     0
 76
     0
 77
     0
 78
     0
281
     0
 65
     1
110
0.0
120
0.0
130
0.0
111
1.0
121
0.0
131
0.0
112
0.0
122
1.0
132
0.0
 79
     0
146
0.0
1001
ACAD_NAV_VCDISPLAY
1070
     3
  0
ENDTAB
  0
TABLE
  2
LTYPE
  5
555
330
0
100
AcDbSymbolTable
 70
     5
  0
LTYPE
  5
556
330
555
100
AcDbSymbolTableRecord
100
AcDbLinetypeTableRecord
  2
ByBlock
 70
     0
  3

 72
    65
 73
     0
 40
0.0
  0
LTYPE
  5
557
330
555
100
AcDbSymbolTableRecord
100
AcDbLinetypeTableRecord
  2
ByLayer
 70
     0
  3

 72
    65
 73
     0
 40
0.0
  0
LTYPE
  5
8
330
555
100
AcDbSymbolTableRecord
100
AcDbLinetypeTableRecord
  2
Continuous
 70
     0
  3
Solid line
 72
    65
 73
     0
 40
0.0
  0
LTYPE
  5
129
330
555
100
AcDbSymbolTableRecord
100
AcDbLinetypeTableRecord
  2
HIDDEN
 70
     0
  3
Hidden __ __ __ __ __ __ __ __ __ __ __ __ __ _
 72
    65
 73
     2
 40
9.524999999999996
 49
6.349999999999998
 74
     0
 49
-3.174999999999998
 74
     0
  0
LTYPE
  5
210
330
555
100
AcDbSymbolTableRecord
100
AcDbLinetypeTableRecord
  2
CENTER
 70
     0
  3
------ - ------ - ----
 72
    65
 73
     4
 40
10.0
 49
6.25
 74
     0
 49
-1.25
 74
     0
 49
1.25
 74
     0
 49
-1.25
 74
     0
  0
ENDTAB
  0
TABLE
  2
LAYER
  5
552
102
{ACAD_XDICTIONARY
360
13AE
102
}
330
0
100
AcDbSymbolTable
 70
    14
  0
LAYER
  5
64
102
{ACAD_XDICTIONARY
360
1331
102
}
330
552
100
AcDbSymbolTableRecord
100
AcDbLayerTableRecord
  2
0
 70
     0
 62
     7
  6
Continuous
370
    -3
390
5
  0
LAYER
  5
6A
102
{ACAD_XDICTIONARY
360
1333
102
}
330
552
100
AcDbSymbolTableRecord
100
AcDbLayerTableRecord
  2
本体
 70
     0
 62
     7
  6
Continuous
370
    13
390
5
  0
LAYER
  5
4
102
{ACAD_XDICTIONARY
360
1335
102
}
330
552
100
AcDbSymbolTableRecord
100
AcDbLayerTableRecord
  2
寸法線
 70
     0
 62
     2
  6
Continuous
370
     9
390
5
  0
LAYER
  5
67
102
{ACAD_XDICTIONARY
360
1339
102
}
330
552
100
AcDbSymbolTableRecord
100
AcDbLayerTableRecord
  2
エンボス
 70
     0
 62
     4
  6
Continuous
370
     5
390
5
  0
LAYER
  5
11
102
{ACAD_XDICTIONARY
360
133B
102
}
330
552
100
AcDbSymbolTableRecord
100
AcDbLayerTableRecord
  2
外枠
 70
     0
 62
     7
  6
Continuous
370
    -3
390
5
  0
LAYER
  5
F4
330
552
100
AcDbSymbolTableRecord
100
AcDbLayerTableRecord
  2
Defpoints
 70
     0
 62
     7
  6
Continuous
290
     0
370
    -3
390
5
  0
LAYER
  5
1269
102
{ACAD_XDICTIONARY
360
1341
102
}
330
552
100
AcDbSymbolTableRecord
100
AcDbLayerTableRecord
  2
嵩上断面
 70
     0
 62
   112
  6
Continuous
370
    13
390
5
  0
LAYER
  5
126E
102
{ACAD_XDICTIONARY
360
1343
102
}
330
552
100
AcDbSymbolTableRecord
100
AcDbLayerTableRecord
  2
嵩上平面
 70
     0
 62
   112
  6
HIDDEN
370
    13
390
5
  0
LAYER
  5
19C2
102
{ACAD_XDICTIONARY
360
19C3
102
}
330
552
100
AcDbSymbolTableRecord
100
AcDbLayerTableRecord
  2
中心線
 70
     0
 62
     1
  6
HIDDEN
370
    13
390
5
  0
ENDTAB
  0
TABLE
  2
STYLE
  5
553
330
0
100
AcDbSymbolTable
 70
     4
  0
STYLE
  5
9
330
553
100
AcDbSymbolTableRecord
100
AcDbTextStyleTableRecord
  2
Standard
 70
     0
 40
0.0
 41
1.0
 50
0.0
 71
     0
 42
2.5
  3

  4

1001
ACAD
1000
MS Gothic
1071
    32817
  0
ENDTAB
  0
TABLE
  2
VIEW
  5
558
330
0
100
AcDbSymbolTable
 70
     0
  0
ENDTAB
  0
TABLE
  2
UCS
  5
559
330
0
100
AcDbSymbolTable
 70
     0
  0
ENDTAB
  0
TABLE
  2
APPID
  5
55C
330
0
100
AcDbSymbolTable
 70
     4
  0
APPID
  5
A
330
55C
100
AcDbSymbolTableRecord
100
AcDbRegAppTableRecord
  2
ACAD
 70
     0
  0
APPID
  5
1347
330
55C
100
AcDbSymbolTableRecord
100
AcDbRegAppTableRecord
  2
ACAD_NAV_VCDISPLAY
 70
     0
  0
APPID
  5
1A59
330
55C
100
AcDbSymbolTableRecord
100
AcDbRegAppTableRecord
  2
ACAD_MLEADERVER
 70
     0
  0
APPID
  5
2171
330
55C
100
AcDbSymbolTableRecord
100
AcDbRegAppTableRecord
  2
ACAD_EXEMPT_FROM_CAD_STANDARDS
 70
     0
  0
ENDTAB
  0
TABLE
  2
DIMSTYLE
  5
55D
330
0
100
AcDbSymbolTable
 70
     2
100
AcDbDimStyleTable
 71
     1
340
E6
  0
DIMSTYLE
105
E6
102
{ACAD_REACTORS
330
F9
330
106
330
113
330
238
330
245
330
254
330
E5A
330
19CC
330
29DB
102
}
330
55D
100
AcDbSymbolTableRecord
100
AcDbDimStyleTableRecord
  2
ISO-25
 70
     0
 40
10.0
 41
1.5
 42
2.0
 43
3.75
 44
1.5
 73
     0
 74
     0
 77
     1
 78
     8
140
3.0
141
2.5
143
0.03937007874016
147
0.5
171
     3
172
     1
271
     2
272
     2
274
     3
283
     0
284
     8
289
     0
340
9
341
DF
342
DF
  0
DIMSTYLE
105
F79
330
55D
100
AcDbSymbolTableRecord
100
AcDbDimStyleTableRecord
  2
Standard
 70
     0
340
9
  0
ENDTAB
  0
TABLE
  2
BLOCK_RECORD
  5
1
330
0
100
AcDbSymbolTable
 70
    38
  0
BLOCK_RECORD
  5
2
102
{ACAD_XDICTIONARY
360
540
102
}
330
1
100
AcDbSymbolTableRecord
100
AcDbBlockTableRecord
  2
*Model_Space
340
544
  0
BLOCK_RECORD
  5
546
102
{ACAD_XDICTIONARY
360
547
102
}
330
1
100
AcDbSymbolTableRecord
100
AcDbBlockTableRecord
  2
*Paper_Space
340
54B
  0
BLOCK_RECORD
  5
54C
102
{ACAD_XDICTIONARY
360
54D
102
}
330
1
100
AcDbSymbolTableRecord
100
AcDbBlockTableRecord
  2
*Paper_Space0
340
551
  0
BLOCK_RECORD
  5
DF
330
1
100
AcDbSymbolTableRecord
100
AcDbBlockTableRecord
  2
_Open30
340
0
102
{BLKREFS
331
2A4F
331
2A50
331
2A58
331
2A59
331
2A61
331
2A62
331
2A6A
331
2A6B
331
2A75
331
2A76
331
2A7E
331
2A7F
331
2A87
331
2A88
331
2A90
331
2A91
331
2A99
331
2A9A
102
}
  0
BLOCK_RECORD
  5
14A
330
1
100
AcDbSymbolTableRecord
100
AcDbBlockTableRecord
  2
A$C13EC0CC9
340
0
102
{BLKREFS
331
2B5E
331
2B5F
331
2B66
331
2B67
331
2B6C
331
10B9
331
2AD
331
2CF
331
2D7
331
2F6
331
FAA
331
102B
331
103D
331
CBC
331
D38
102
}
  0
BLOCK_RECORD
  5
20D
330
1
100
AcDbSymbolTableRecord
100
AcDbBlockTableRecord
  2
TB6
340
0
102
{BLKREFS
331
2D1
331
11D2
331
CAE
331
20C
331
215
331
216
102
}
1001
ACAD
1000
DesignCenter Data
1002
{
1070
     1
1070
     4
1002
}
  0
BLOCK_RECORD
  5
262
330
1
100
AcDbSymbolTableRecord
100
AcDbBlockTableRecord
  2
A$C61D83440
340
0
102
{BLKREFS
331
2B5C
331
2B5D
331
2CE
331
2D0
331
261
331
26C
102
}
  0
BLOCK_RECORD
  5
FA
330
1
100
AcDbSymbolTableRecord
100
AcDbBlockTableRecord
  2
*D8
340
0
  0
BLOCK_RECORD
  5
107
330
1
100
AcDbSymbolTableRecord
100
AcDbBlockTableRecord
  2
*D9
340
0
  0
BLOCK_RECORD
  5
114
330
1
100
AcDbSymbolTableRecord
100
AcDbBlockTableRecord
  2
*D10
340
0
  0
BLOCK_RECORD
  5
239
330
1
100
AcDbSymbolTableRecord
100
AcDbBlockTableRecord
  2
*D12
340
0
  0
BLOCK_RECORD
  5
246
330
1
100
AcDbSymbolTableRecord
100
AcDbBlockTableRecord
  2
*D13
340
0
  0
BLOCK_RECORD
  5
255
330
1
100
AcDbSymbolTableRecord
100
AcDbBlockTableRecord
  2
*D14
340
0
  0
BLOCK_RECORD
  5
C0F
330
1
100
AcDbSymbolTableRecord
100
AcDbBlockTableRecord
  2
HGIB詳細
340
0
102
{BLKREFS
331
C95
102
}
1001
ACAD
1000
DesignCenter Data
1002
{
1070
     1
1070
     4
1002
}
  0
BLOCK_RECORD
  5
E5B
330
1
100
AcDbSymbolTableRecord
100
AcDbBlockTableRecord
  2
*D25
340
0
  0
BLOCK_RECORD
  5
12CB
330
1
100
AcDbSymbolTableRecord
100
AcDbBlockTableRecord
  2
清水
340
0
102
{BLKREFS
331
12D1
102
}
1001
ACAD
1000
DesignCenter Data
1002
{
1070
     1
1070
     4
1002
}
  0
BLOCK_RECORD
  5
1399
102
{ACAD_XDICTIONARY
360
139A
102
}
330
1
100
AcDbSymbolTableRecord
100
AcDbBlockTableRecord
  2
GFB新
340
0
102
{BLKREFS
331
13BB
102
}
1001
ACAD
1000
DesignCenter Data
1002
{
1070
     1
1070
     4
1002
}
  0
BLOCK_RECORD
  5
13A7
102
{ACAD_XDICTIONARY
360
13A8
102
}
330
1
100
AcDbSymbolTableRecord
100
AcDbBlockTableRecord
  2
鎌下
340
0
102
{BLKREFS
331
13BC
102
}
1001
ACAD
1000
DesignCenter Data
1002
{
1070
     1
1070
     4
1002
}
  0
BLOCK_RECORD
  5
19CF
330
1
100
AcDbSymbolTableRecord
100
AcDbBlockTableRecord
  2
*D31
340
0
  0
BLOCK_RECORD
  5
29DE
330
1
100
AcDbSymbolTableRecord
100
AcDbBlockTableRecord
  2
*D33
340
0
  0
BLOCK_RECORD
  5
2AED
102
{ACAD_REACTORS
330
2B2B
102
}
330
1
100
AcDbSymbolTableRecord
100
AcDbBlockTableRecord
  2
*U34
340
0
102
{BLKREFS
331
2B40
331
2B41
331
2B42
331
2B43
331
2B44
331
2B45
331
2B46
331
2B47
331
2B48
331
2B49
331
2B4A
331
2B4B
331
2B4C
331
2B4D
331
2B4E
331
2B4F
331
2B2F
331
2B30
331
2B31
331
2B32
331
2B33
331
2B34
331
2B35
331
2B36
331
2B37
331
2B38
331
2B39
331
2B3A
331
2B3B
331
2B3C
331
2B3D
331
2B3E
331
2B3F
102
}
  0
BLOCK_RECORD
  5
2AF0
102
{ACAD_XDICTIONARY
360
2BFF
102
}
102
{ACAD_REACTORS
330
2B2A
102
}
330
1
100
AcDbSymbolTableRecord
100
AcDbBlockTableRecord
  2
*U35
340
0
102
{BLKREFS
331
2AF3
102
}
  0
BLOCK_RECORD
  5
2B51
102
{ACAD_REACTORS
330
2B79
102
}
330
1
100
AcDbSymbolTableRecord
100
AcDbBlockTableRecord
  2
*U36
340
0
102
{BLKREFS
331
2B7D
331
2B7E
331
2B7F
331
2B80
331
2B81
331
2B82
331
2B83
331
2B84
331
2B85
331
2B86
331
2B87
331
2B88
331
2B89
331
2B8A
331
2B8B
331
2B8C
331
2B8D
331
2B8E
331
2B8F
331
2B90
331
2B91
331
2B92
331
2B93
331
2B94
331
2B95
331
2B96
331
2B97
331
2B98
331
2B99
331
2B9A
331
2B9B
331
2B9C
331
2B9D
331
2B9E
331
2B9F
331
2BA0
331
2BA1
331
2BA2
331
2BA3
331
2BA4
331
2BA5
331
2BA6
331
2BA7
331
2BA8
331
2BA9
331
2BAA
331
2BAB
331
2BAC
331
2BAD
331
2BAE
331
2BAF
331
2BB0
331
2BB1
331
2BB2
331
2BB3
331
2BB4
331
2BB5
331
2BB6
331
2BB7
331
2BB8
331
2BB9
331
2BBA
331
2BBB
331
2BBC
331
2BBD
102
}
  0
BLOCK_RECORD
  5
2B54
102
{ACAD_XDICTIONARY
360
2C02
102
}
102
{ACAD_REACTORS
330
2B78
102
}
330
1
100
AcDbSymbolTableRecord
100
AcDbBlockTableRecord
  2
*U37
340
0
102
{BLKREFS
331
2B57
102
}
  0
ENDTAB
  0
ENDSEC
  0
SECTION
  2
BLOCKS
  0
BLOCK
  5
542
330
2
100
AcDbEntity
  8
0
100
AcDbBlockBegin
  2
*Model_Space
 70
     0
 10
0.0
 20
0.0
 30
0.0
  3
*Model_Space
  1

  0
ENDBLK
  5
543
330
2
100
AcDbEntity
  8
0
100
AcDbBlockEnd
  0
BLOCK
  5
549
330
546
100
AcDbEntity
 67
     1
  8
0
100
AcDbBlockBegin
  2
*Paper_Space
 70
     0
 10
0.0
 20
0.0
 30
0.0
  3
*Paper_Space
  1

  0
ENDBLK
  5
54A
330
546
100
AcDbEntity
 67
     1
  8
0
100
AcDbBlockEnd
  0
BLOCK
  5
54F
330
54C
100
AcDbEntity
 67
     1
  8
0
100
AcDbBlockBegin
  2
*Paper_Space0
 70
     0
 10
0.0
 20
0.0
 30
0.0
  3
*Paper_Space0
  1

  0
ENDBLK
  5
550
330
54C
100
AcDbEntity
 67
     1
  8
0
100
AcDbBlockEnd
  0
BLOCK
  5
E3
330
DF
100
AcDbEntity
  8
0
100
AcDbBlockBegin
  2
_Open30
 70
     0
 10
0.0
 20
0.0
 30
0.0
  3
_Open30
  1

  0
LINE
  5
E0
330
DF
100
AcDbEntity
  8
0
  6
ByBlock
 62
     0
370
    -2
100
AcDbLine
 10
-1.0
 20
0.26794919
 30
0.0
 11
0.0
 21
0.0
 31
0.0
  0
LINE
  5
E1
330
DF
100
AcDbEntity
  8
0
  6
ByBlock
 62
     0
370
    -2
100
AcDbLine
 10
0.0
 20
0.0
 30
0.0
 11
-1.0
 21
-0.26794919
 31
0.0
  0
LINE
  5
E2
330
DF
100
AcDbEntity
  8
0
  6
ByBlock
 62
     0
370
    -2
100
AcDbLine
 10
0.0
 20
0.0
 30
0.0
 11
-1.0
 21
0.0
 31
0.0
  0
ENDBLK
  5
E4
330
DF
100
AcDbEntity
  8
0
100
AcDbBlockEnd
  0
BLOCK
  5
159
330
14A
100
AcDbEntity
  8
0
100
AcDbBlockBegin
  2
A$C13EC0CC9
 70
     0
 10
0.0
 20
0.0
 30
0.0
  3
A$C13EC0CC9
  1

  0
LINE
  5
14B
330
14A
100
AcDbEntity
  8
0
  6
Continuous
100
AcDbLine
 10
0.0
 20
-15.5
 30
0.0
 11
5.0
 21
-17.5
 31
0.0
  0
LINE
  5
14C
330
14A
100
AcDbEntity
  8
0
  6
Continuous
100
AcDbLine
 10
4.999999999999999
 20
-92.5
 30
0.0
 11
-0.0000000000000018
 21
-90.50000000000002
 31
0.0
  0
LINE
  5
14D
330
14A
100
AcDbEntity
  8
0
  6
Continuous
100
AcDbLine
 10
4.999999999999999
 20
-85.50000000000002
 30
0.0
 11
-0.0000000000000018
 21
-87.50000000000001
 31
0.0
  0
LINE
  5
14E
330
14A
100
AcDbEntity
  8
0
  6
Continuous
100
AcDbLine
 10
5.0
 20
-76.50000000000002
 30
0.0
 11
0.0
 21
-78.50000000000001
 31
0.0
  0
LINE
  5
14F
330
14A
100
AcDbEntity
  8
0
  6
Continuous
100
AcDbLine
 10
0.0
 20
-71.50000000000002
 30
0.0
 11
5.0
 21
-73.50000000000001
 31
0.0
  0
LINE
  5
150
330
14A
100
AcDbEntity
  8
0
  6
Continuous
100
AcDbLine
 10
0.0
 20
-43.5
 30
0.0
 11
5.0
 21
-45.49999999999999
 31
0.0
  0
LINE
  5
151
330
14A
100
AcDbEntity
  8
0
  6
Continuous
100
AcDbLine
 10
5.0
 20
-48.5
 30
0.0
 11
0.0
 21
-50.5
 31
0.0
  0
LINE
  5
152
330
14A
100
AcDbEntity
  8
0
  6
Continuous
100
AcDbLine
 10
5.0
 20
-64.50000000000001
 30
0.0
 11
-0.0000000000000009
 21
-62.5
 31
0.0
  0
LINE
  5
153
330
14A
100
AcDbEntity
  8
0
  6
Continuous
100
AcDbLine
 10
-0.0000000000000009
 20
-59.50000000000001
 30
0.0
 11
5.0
 21
-57.5
 31
0.0
  0
LINE
  5
154
330
14A
100
AcDbEntity
  8
0
  6
Continuous
100
AcDbLine
 10
-0.0000000000000009
 20
-31.50000000000001
 30
0.0
 11
5.0
 21
-29.50000000000001
 31
0.0
  0
LINE
  5
155
330
14A
100
AcDbEntity
  8
0
  6
Continuous
100
AcDbLine
 10
5.0
 20
-36.50000000000001
 30
0.0
 11
-0.0000000000000009
 21
-34.50000000000001
 31
0.0
  0
LINE
  5
156
330
14A
100
AcDbEntity
  8
0
  6
Continuous
100
AcDbLine
 10
5.0
 20
-20.5
 30
0.0
 11
0.0
 21
-22.5
 31
0.0
  0
LINE
  5
157
330
14A
100
AcDbEntity
  8
0
  6
Continuous
100
AcDbLine
 10
-0.0000000000000009
 20
-3.500000000000001
 30
0.0
 11
5.0
 21
-1.5
 31
0.0
  0
LINE
  5
158
330
14A
100
AcDbEntity
  8
0
  6
Continuous
100
AcDbLine
 10
5.0
 20
-8.500000000000001
 30
0.0
 11
-0.0000000000000009
 21
-6.5
 31
0.0
  0
ENDBLK
  5
15A
330
14A
100
AcDbEntity
  8
0
100
AcDbBlockEnd
  0
BLOCK
  5
213
330
20D
100
AcDbEntity
  8
0
100
AcDbBlockBegin
  2
TB6
 70
     0
 10
0.0
 20
0.0
 30
0.0
  3
TB6
  1

  0
MTEXT
  5
20E
330
20D
100
AcDbEntity
  8
寸法線
  6
Continuous
100
AcDbMText
 10
917.3216494432054
 20
235.349302881973
 30
0.0
 40
20.0
 41
17.2146
 71
     7
 72
     1
  1

 73
     1
 44
1.0
1001
ACAD
1000
MTEXTBEGIN
1070
    73
1070
     1
1070
    44
1040
1.0
1070
    74
1070
     0
1000
MTEXTEND
  0
LINE
  5
20F
330
20D
100
AcDbEntity
  8
本体
  6
CENTER
 62
     1
 48
0.3
100
AcDbLine
 10
9.0
 20
0.0
 30
0.0
 11
-3.0
 21
0.0
 31
0.0
  0
LINE
  5
211
330
20D
100
AcDbEntity
  8
本体
  6
CENTER
 62
     1
 48
0.3
100
AcDbLine
 10
3.0
 20
6.0
 30
0.0
 11
3.0
 21
-6.0
 31
0.0
  0
CIRCLE
  5
212
330
20D
100
AcDbEntity
  8
本体
  6
Continuous
 62
     0
100
AcDbCircle
 10
3.0
 20
0.0
 30
0.0
 40
3.0
  0
ENDBLK
  5
214
330
20D
100
AcDbEntity
  8
0
100
AcDbBlockEnd
  0
BLOCK
  5
26A
330
262
100
AcDbEntity
  8
0
100
AcDbBlockBegin
  2
A$C61D83440
 70
     0
 10
0.0
 20
0.0
 30
0.0
  3
A$C61D83440
  1

  0
LINE
  5
263
330
262
100
AcDbEntity
  8
0
  6
Continuous
100
AcDbLine
 10
0.0
 20
-31.49999999999977
 30
0.0
 11
5.0
 21
-29.49999999999977
 31
0.0
  0
LINE
  5
264
330
262
100
AcDbEntity
  8
0
  6
Continuous
100
AcDbLine
 10
5.0
 20
-36.49999999999977
 30
0.0
 11
0.0
 21
-34.49999999999977
 31
0.0
  0
LINE
  5
265
330
262
100
AcDbEntity
  8
0
  6
Continuous
100
AcDbLine
 10
0.0
 20
-3.499999999999771
 30
0.0
 11
5.0
 21
-1.499999999999771
 31
0.0
  0
LINE
  5
266
330
262
100
AcDbEntity
  8
0
  6
Continuous
100
AcDbLine
 10
5.0
 20
-8.499999999999772
 30
0.0
 11
0.0
 21
-6.499999999999772
 31
0.0
  0
LINE
  5
267
330
262
100
AcDbEntity
  8
0
  6
Continuous
100
AcDbLine
 10
0.0
 20
-15.49999999999977
 30
0.0
 11
5.0
 21
-17.49999999999977
 31
0.0
  0
LINE
  5
268
330
262
100
AcDbEntity
  8
0
  6
Continuous
100
AcDbLine
 10
5.0
 20
-20.49999999999977
 30
0.0
 11
0.0
 21
-22.49999999999977
 31
0.0
  0
LINE
  5
269
330
262
100
AcDbEntity
  8
0
  6
Continuous
100
AcDbLine
 10
0.0
 20
-43.49999999999977
 30
0.0
 11
5.0
 21
-45.49999999999977
 31
0.0
  0
ENDBLK
  5
26B
330
262
100
AcDbEntity
  8
0
100
AcDbBlockEnd
  0
BLOCK
  5
104
330
FA
100
AcDbEntity
  8
0
 48
3.0
100
AcDbBlockBegin
  2
*D8
 70
     1
 10
0.0
 20
0.0
 30
0.0
  3
*D8
  1

  0
LINE
  5
2A84
330
FA
100
AcDbEntity
  8
寸法線
  6
Continuous
 62
     0
370
    -2
100
AcDbLine
 10
2218.714850642466
 20
1493.654660416729
 30
0.0
 11
2218.714850642466
 21
1568.658330465362
 31
0.0
  0
LINE
  5
2A85
330
FA
100
AcDbEntity
  8
寸法線
  6
Continuous
 62
     0
370
    -2
100
AcDbLine
 10
2118.714850642466
 20
1493.654660416729
 30
0.0
 11
2118.714850642466
 21
1568.658330465362
 31
0.0
  0
LINE
  5
2A86
330
FA
100
AcDbEntity
  8
寸法線
  6
Continuous
 62
     0
370
    -2
100
AcDbLine
 10
2203.714850642466
 20
1553.658330465362
 30
0.0
 11
2133.714850642466
 21
1553.658330465362
 31
0.0
  0
INSERT
  5
2A87
330
FA
100
AcDbEntity
  8
寸法線
  6
Continuous
 62
     0
370
    -2
100
AcDbBlockReference
  2
_Open30
 10
2218.714850642466
 20
1553.658330465362
 30
0.0
 41
15.0
 42
15.0
 43
15.0
  0
INSERT
  5
2A88
330
FA
100
AcDbEntity
  8
寸法線
  6
Continuous
 62
     0
370
    -2
100
AcDbBlockReference
  2
_Open30
 10
2118.714850642466
 20
1553.658330465362
 30
0.0
 41
15.0
 42
15.0
 43
15.0
 50
180.0
  0
MTEXT
  5
2A89
330
FA
100
AcDbEntity
  8
寸法線
  6
Continuous
 62
     0
100
AcDbMText
 10
2168.714850642466
 20
1573.658330465362
 30
0.0
 40
30.0
 41
0.0
 71
     5
 72
     1
  1
100
 73
     1
 44
1.0
1001
ACAD
1000
MTEXTBEGIN
1070
    73
1070
     1
1070
    44
1040
1.0
1070
    74
1070
     0
1000
MTEXTEND
  0
POINT
  5
2A8A
330
FA
100
AcDbEntity
  8
Defpoints
  6
Continuous
 62
     0
100
AcDbPoint
 10
2218.714850642466
 20
1473.654660416729
 30
0.0
  0
POINT
  5
2A8B
330
FA
100
AcDbEntity
  8
Defpoints
  6
Continuous
 62
     0
100
AcDbPoint
 10
2118.714850642466
 20
1473.654660416729
 30
0.0
  0
POINT
  5
2A8C
330
FA
100
AcDbEntity
  8
Defpoints
  6
Continuous
 62
     0
100
AcDbPoint
 10
2118.714850642466
 20
1553.658330465362
 30
0.0
  0
ENDBLK
  5
105
330
FA
100
AcDbEntity
  8
0
 48
3.0
100
AcDbBlockEnd
  0
BLOCK
  5
111
330
107
100
AcDbEntity
  8
0
 48
3.0
100
AcDbBlockBegin
  2
*D9
 70
     1
 10
0.0
 20
0.0
 30
0.0
  3
*D9
  1

  0
LINE
  5
2A8D
330
107
100
AcDbEntity
  8
寸法線
  6
Continuous
 62
     0
370
    -2
100
AcDbLine
 10
2278.714850642466
 20
1493.654660416729
 30
0.0
 11
2278.714850642466
 21
1648.662082348709
 31
0.0
  0
LINE
  5
2A8E
330
107
100
AcDbEntity
  8
寸法線
  6
Continuous
 62
     0
370
    -2
100
AcDbLine
 10
1658.714850642464
 20
1493.654660416729
 30
0.0
 11
1658.714850642464
 21
1648.662082348709
 31
0.0
  0
LINE
  5
2A8F
330
107
100
AcDbEntity
  8
寸法線
  6
Continuous
 62
     0
370
    -2
100
AcDbLine
 10
2263.714850642466
 20
1633.662082348709
 30
0.0
 11
1673.714850642465
 21
1633.662082348709
 31
0.0
  0
INSERT
  5
2A90
330
107
100
AcDbEntity
  8
寸法線
  6
Continuous
 62
     0
370
    -2
100
AcDbBlockReference
  2
_Open30
 10
2278.714850642466
 20
1633.662082348709
 30
0.0
 41
15.0
 42
15.0
 43
15.0
  0
INSERT
  5
2A91
330
107
100
AcDbEntity
  8
寸法線
  6
Continuous
 62
     0
370
    -2
100
AcDbBlockReference
  2
_Open30
 10
1658.714850642464
 20
1633.662082348709
 30
0.0
 41
15.0
 42
15.0
 43
15.0
 50
180.0
  0
MTEXT
  5
2A92
330
107
100
AcDbEntity
  8
寸法線
  6
Continuous
 62
     0
100
AcDbMText
 10
1968.714850642465
 20
1653.662082348709
 30
0.0
 40
30.0
 41
0.0
 71
     5
 72
     1
  1
620
 73
     1
 44
1.0
1001
ACAD
1000
MTEXTBEGIN
1070
    73
1070
     1
1070
    44
1040
1.0
1070
    74
1070
     0
1000
MTEXTEND
  0
POINT
  5
2A93
330
107
100
AcDbEntity
  8
Defpoints
  6
Continuous
 62
     0
100
AcDbPoint
 10
2278.714850642466
 20
1473.654660416729
 30
0.0
  0
POINT
  5
2A94
330
107
100
AcDbEntity
  8
Defpoints
  6
Continuous
 62
     0
100
AcDbPoint
 10
1658.714850642464
 20
1473.654660416729
 30
0.0
  0
POINT
  5
2A95
330
107
100
AcDbEntity
  8
Defpoints
  6
Continuous
 62
     0
100
AcDbPoint
 10
1658.714850642464
 20
1633.662082348709
 30
0.0
  0
ENDBLK
  5
112
330
107
100
AcDbEntity
  8
0
 48
3.0
100
AcDbBlockEnd
  0
BLOCK
  5
11E
330
114
100
AcDbEntity
  8
0
 48
3.0
100
AcDbBlockBegin
  2
*D10
 70
     1
 10
0.0
 20
0.0
 30
0.0
  3
*D10
  1

  0
LINE
  5
2A96
330
114
100
AcDbEntity
  8
寸法線
  6
Continuous
 62
     0
370
    -2
100
AcDbLine
 10
2268.714851642466
 20
1331.654663416729
 30
0.0
 11
2268.714851642466
 21
1253.653741908852
 31
0.0
  0
LINE
  5
2A97
330
114
100
AcDbEntity
  8
寸法線
  6
Continuous
 62
     0
370
    -2
100
AcDbLine
 10
1668.714849642466
 20
1331.654663416729
 30
0.0
 11
1668.714849642466
 21
1253.653741908852
 31
0.0
  0
LINE
  5
2A98
330
114
100
AcDbEntity
  8
寸法線
  6
Continuous
 62
     0
370
    -2
100
AcDbLine
 10
2253.714851642467
 20
1268.653741908852
 30
0.0
 11
1683.714849642466
 21
1268.653741908852
 31
0.0
  0
INSERT
  5
2A99
330
114
100
AcDbEntity
  8
寸法線
  6
Continuous
 62
     0
370
    -2
100
AcDbBlockReference
  2
_Open30
 10
2268.714851642466
 20
1268.653741908852
 30
0.0
 41
15.0
 42
15.0
 43
15.0
  0
INSERT
  5
2A9A
330
114
100
AcDbEntity
  8
寸法線
  6
Continuous
 62
     0
370
    -2
100
AcDbBlockReference
  2
_Open30
 10
1668.714849642466
 20
1268.653741908852
 30
0.0
 41
15.0
 42
15.0
 43
15.0
 50
180.0
  0
MTEXT
  5
2A9B
330
114
100
AcDbEntity
  8
寸法線
  6
Continuous
 62
     0
100
AcDbMText
 10
1968.714850642466
 20
1288.653741908852
 30
0.0
 40
30.0
 41
0.0
 71
     5
 72
     1
  1
600
 73
     1
 44
1.0
1001
ACAD
1000
MTEXTBEGIN
1070
    73
1070
     1
1070
    44
1040
1.0
1070
    74
1070
     0
1000
MTEXTEND
  0
POINT
  5
2A9C
330
114
100
AcDbEntity
  8
Defpoints
  6
Continuous
 62
     0
100
AcDbPoint
 10
2268.714851642466
 20
1351.654663416729
 30
0.0
  0
POINT
  5
2A9D
330
114
100
AcDbEntity
  8
Defpoints
  6
Continuous
 62
     0
100
AcDbPoint
 10
1668.714849642466
 20
1351.654663416729
 30
0.0
  0
POINT
  5
2A9E
330
114
100
AcDbEntity
  8
Defpoints
  6
Continuous
 62
     0
100
AcDbPoint
 10
1668.714849642466
 20
1268.653741908852
 30
0.0
  0
ENDBLK
  5
11F
330
114
100
AcDbEntity
  8
0
 48
3.0
100
AcDbBlockEnd
  0
BLOCK
  5
243
330
239
100
AcDbEntity
  8
0
 48
3.0
100
AcDbBlockBegin
  2
*D12
 70
     1
 10
0.0
 20
0.0
 30
0.0
  3
*D12
  1

  0
LINE
  5
2A4C
330
239
100
AcDbEntity
  8
寸法線
  6
Continuous
 62
     0
370
    -2
100
AcDbLine
 10
202.3943726623065
 20
1493.654660416729
 30
0.0
 11
202.3943726623065
 21
1648.656143142212
 31
0.0
  0
LINE
  5
2A4D
330
239
100
AcDbEntity
  8
寸法線
  6
Continuous
 62
     0
370
    -2
100
AcDbLine
 10
1197.394372662306
 20
1493.654660416729
 30
0.0
 11
1197.394372662306
 21
1648.656143142212
 31
0.0
  0
LINE
  5
2A4E
330
239
100
AcDbEntity
  8
寸法線
  6
Continuous
 62
     0
370
    -2
100
AcDbLine
 10
217.3943726623065
 20
1633.656143142212
 30
0.0
 11
1182.394372662306
 21
1633.656143142212
 31
0.0
  0
INSERT
  5
2A4F
330
239
100
AcDbEntity
  8
寸法線
  6
Continuous
 62
     0
370
    -2
100
AcDbBlockReference
  2
_Open30
 10
202.3943726623065
 20
1633.656143142212
 30
0.0
 41
15.0
 42
15.0
 43
15.0
 50
180.0
  0
INSERT
  5
2A50
330
239
100
AcDbEntity
  8
寸法線
  6
Continuous
 62
     0
370
    -2
100
AcDbBlockReference
  2
_Open30
 10
1197.394372662306
 20
1633.656143142212
 30
0.0
 41
15.0
 42
15.0
 43
15.0
  0
MTEXT
  5
2A51
330
239
100
AcDbEntity
  8
寸法線
  6
Continuous
 62
     0
100
AcDbMText
 10
699.8943726623065
 20
1653.656143142212
 30
0.0
 40
30.0
 41
0.0
 71
     5
 72
     1
  1
995
 73
     1
 44
1.0
1001
ACAD
1000
MTEXTBEGIN
1070
    73
1070
     1
1070
    44
1040
1.0
1070
    74
1070
     0
1000
MTEXTEND
  0
POINT
  5
2A52
330
239
100
AcDbEntity
  8
Defpoints
  6
Continuous
 62
     0
100
AcDbPoint
 10
202.3943726623065
 20
1473.654660416729
 30
0.0
  0
POINT
  5
2A53
330
239
100
AcDbEntity
  8
Defpoints
  6
Continuous
 62
     0
100
AcDbPoint
 10
1197.394372662306
 20
1473.654660416729
 30
0.0
  0
POINT
  5
2A54
330
239
100
AcDbEntity
  8
Defpoints
  6
Continuous
 62
     0
100
AcDbPoint
 10
1197.394372662306
 20
1633.656143142212
 30
0.0
  0
ENDBLK
  5
244
330
239
100
AcDbEntity
  8
0
 48
3.0
100
AcDbBlockEnd
  0
BLOCK
  5
252
330
246
100
AcDbEntity
  8
0
 48
3.0
100
AcDbBlockBegin
  2
*D13
 70
     1
 10
0.0
 20
0.0
 30
0.0
  3
*D13
  1

  0
LINE
  5
2A55
330
246
100
AcDbEntity
  8
寸法線
  6
Continuous
 62
     0
370
    -2
100
AcDbLine
 10
1214.894372662306
 20
1423.654660416729
 30
0.0
 11
1322.394372662306
 21
1423.654660416729
 31
0.0
  0
LINE
  5
2A56
330
246
100
AcDbEntity
  8
寸法線
  6
Continuous
 62
     0
370
    -2
100
AcDbLine
 10
1214.894372662306
 20
1473.654660416729
 30
0.0
 11
1322.394372662306
 21
1473.654660416729
 31
0.0
  0
LINE
  5
2A57
330
246
100
AcDbEntity
  8
寸法線
  6
Continuous
 62
     0
370
    -2
100
AcDbLine
 10
1307.394372662306
 20
1438.654660416729
 30
0.0
 11
1307.394372662306
 21
1458.654660416729
 31
0.0
  0
INSERT
  5
2A58
330
246
100
AcDbEntity
  8
寸法線
  6
Continuous
 62
     0
370
    -2
100
AcDbBlockReference
  2
_Open30
 10
1307.394372662306
 20
1423.654660416729
 30
0.0
 41
15.0
 42
15.0
 43
15.0
 50
270.0
  0
INSERT
  5
2A59
330
246
100
AcDbEntity
  8
寸法線
  6
Continuous
 62
     0
370
    -2
100
AcDbBlockReference
  2
_Open30
 10
1307.394372662306
 20
1473.654660416729
 30
0.0
 41
15.0
 42
15.0
 43
15.0
 50
90.0
  0
MTEXT
  5
2A5A
330
246
100
AcDbEntity
  8
寸法線
  6
Continuous
 62
     0
100
AcDbMText
 10
1287.394372662306
 20
1448.654660416729
 30
0.0
 40
30.0
 41
0.0
 71
     5
 72
     1
  1
50
 11
0.0000000000000001
 21
1.0
 31
0.0
 73
     1
 44
1.0
1001
ACAD
1000
MTEXTBEGIN
1070
    73
1070
     1
1070
    44
1040
1.0
1070
    74
1070
     0
1000
MTEXTEND
  0
POINT
  5
2A5B
330
246
100
AcDbEntity
  8
Defpoints
  6
Continuous
 62
     0
100
AcDbPoint
 10
1194.894372662306
 20
1423.654660416729
 30
0.0
  0
POINT
  5
2A5C
330
246
100
AcDbEntity
  8
Defpoints
  6
Continuous
 62
     0
100
AcDbPoint
 10
1194.894372662306
 20
1473.654660416729
 30
0.0
  0
POINT
  5
2A5D
330
246
100
AcDbEntity
  8
Defpoints
  6
Continuous
 62
     0
100
AcDbPoint
 10
1307.394372662306
 20
1473.654660416729
 30
0.0
  0
ENDBLK
  5
253
330
246
100
AcDbEntity
  8
0
 48
3.0
100
AcDbBlockEnd
  0
BLOCK
  5
25F
330
255
100
AcDbEntity
  8
0
 48
3.0
100
AcDbBlockBegin
  2
*D14
 70
     1
 10
0.0
 20
0.0
 30
0.0
  3
*D14
  1

  0
LINE
  5
2A5E
330
255
100
AcDbEntity
  8
寸法線
  6
Continuous
 62
     0
370
    -2
100
AcDbLine
 10
1214.894372662306
 20
1473.654660416729
 30
0.0
 11
1402.394372662306
 21
1473.654660416729
 31
0.0
  0
LINE
  5
2A5F
330
255
100
AcDbEntity
  8
寸法線
  6
Continuous
 62
     0
370
    -2
100
AcDbLine
 10
1214.894372662306
 20
1348.654660416729
 30
0.0
 11
1402.394372662306
 21
1348.654660416729
 31
0.0
  0
LINE
  5
2A60
330
255
100
AcDbEntity
  8
寸法線
  6
Continuous
 62
     0
370
    -2
100
AcDbLine
 10
1387.394372662307
 20
1458.654660416729
 30
0.0
 11
1387.394372662307
 21
1363.654660416729
 31
0.0
  0
INSERT
  5
2A61
330
255
100
AcDbEntity
  8
寸法線
  6
Continuous
 62
     0
370
    -2
100
AcDbBlockReference
  2
_Open30
 10
1387.394372662307
 20
1473.654660416729
 30
0.0
 41
15.0
 42
15.0
 43
15.0
 50
90.0
  0
INSERT
  5
2A62
330
255
100
AcDbEntity
  8
寸法線
  6
Continuous
 62
     0
370
    -2
100
AcDbBlockReference
  2
_Open30
 10
1387.394372662307
 20
1348.654660416729
 30
0.0
 41
15.0
 42
15.0
 43
15.0
 50
270.0
  0
MTEXT
  5
2A63
330
255
100
AcDbEntity
  8
寸法線
  6
Continuous
 62
     0
100
AcDbMText
 10
1367.394372662306
 20
1411.154660416729
 30
0.0
 40
30.0
 41
0.0
 71
     5
 72
     1
  1
125
 11
0.0000000000000001
 21
1.0
 31
0.0
 73
     1
 44
1.0
1001
ACAD
1000
MTEXTBEGIN
1070
    73
1070
     1
1070
    44
1040
1.0
1070
    74
1070
     0
1000
MTEXTEND
  0
POINT
  5
2A64
330
255
100
AcDbEntity
  8
Defpoints
  6
Continuous
 62
     0
100
AcDbPoint
 10
1194.894372662306
 20
1473.654660416729
 30
0.0
  0
POINT
  5
2A65
330
255
100
AcDbEntity
  8
Defpoints
  6
Continuous
 62
     0
100
AcDbPoint
 10
1194.894372662306
 20
1348.654660416729
 30
0.0
  0
POINT
  5
2A66
330
255
100
AcDbEntity
  8
Defpoints
  6
Continuous
 62
     0
100
AcDbPoint
 10
1387.394372662307
 20
1348.654660416729
 30
0.0
  0
ENDBLK
  5
260
330
255
100
AcDbEntity
  8
0
 48
3.0
100
AcDbBlockEnd
  0
BLOCK
  5
C93
330
C0F
100
AcDbEntity
  8
0
 48
3.0
100
AcDbBlockBegin
  2
HGIB詳細
 70
     0
 10
0.0
 20
0.0
 30
0.0
  3
HGIB詳細
  1

  0
MTEXT
  5
C10
330
C0F
100
AcDbEntity
  8
寸法線
  6
Continuous
100
AcDbMText
 10
917.3216494432054
 20
235.349302881973
 30
0.0
 40
20.0
 41
17.2146
 71
     7
 72
     1
  1

 73
     1
 44
1.0
1001
ACAD
1000
MTEXTBEGIN
1070
    73
1070
     1
1070
    44
1040
1.0
1070
    74
1070
     0
1000
MTEXTEND
  0
MTEXT
  5
C11
330
C0F
100
AcDbEntity
  8
寸法線
  6
Continuous
100
AcDbMText
 10
1190.40747444238
 20
2236.853038095159
 30
0.0
 40
30.0
 41
17.2146
 71
     7
 72
     1
  1

 73
     1
 44
1.0
1001
ACAD
1000
MTEXTBEGIN
1070
    73
1070
     1
1070
    44
1040
1.0
1070
    74
1070
     0
1000
MTEXTEND
  0
MTEXT
  5
C12
330
C0F
100
AcDbEntity
  8
寸法線
  6
Continuous
100
AcDbMText
 10
1803.670061800466
 20
2319.243278892013
 30
0.0
 40
20.0
 41
17.2146
 71
     7
 72
     1
  1

 73
     1
 44
1.0
1001
ACAD
1000
MTEXTBEGIN
1070
    73
1070
     1
1070
    44
1040
1.0
1070
    74
1070
     0
1000
MTEXTEND
  0
MTEXT
  5
C13
330
C0F
100
AcDbEntity
  8
寸法線
  6
Continuous
100
AcDbMText
 10
2544.970061800466
 20
2319.243278892013
 30
0.0
 40
20.0
 41
17.2146
 71
     7
 72
     1
  1

 73
     1
 44
1.0
1001
ACAD
1000
MTEXTBEGIN
1070
    73
1070
     1
1070
    44
1040
1.0
1070
    74
1070
     0
1000
MTEXTEND
  0
MTEXT
  5
C14
330
C0F
100
AcDbEntity
  8
寸法線
  6
Continuous
100
AcDbMText
 10
917.3216494432054
 20
235.349302881973
 30
0.0
 40
20.0
 41
17.2146
 71
     7
 72
     1
  1

 73
     1
 44
1.0
1001
ACAD
1000
MTEXTBEGIN
1070
    73
1070
     1
1070
    44
1040
1.0
1070
    74
1070
     0
1000
MTEXTEND
  0
MTEXT
  5
C15
330
C0F
100
AcDbEntity
  8
寸法線
  6
Continuous
100
AcDbMText
 10
3115.620061800466
 20
3254.243286892013
 30
0.0
 40
20.0
 41
17.2146
 71
     7
 72
     1
  1

 73
     1
 44
1.0
1001
ACAD
1000
MTEXTBEGIN
1070
    73
1070
     1
1070
    44
1040
1.0
1070
    74
1070
     0
1000
MTEXTEND
  0
MTEXT
  5
C16
330
C0F
100
AcDbEntity
  8
寸法線
  6
Continuous
100
AcDbMText
 10
4075.4686838811
 20
292.0312092662889
 30
0.0
 40
20.0
 41
17.2146
 71
     7
 72
     1
  1

 73
     1
 44
1.0
1001
ACAD
1000
MTEXTBEGIN
1070
    73
1070
     1
1070
    44
1040
1.0
1070
    74
1070
     0
1000
MTEXTEND
  0
MTEXT
  5
C17
330
C0F
100
AcDbEntity
  8
0
100
AcDbMText
 10
5485.897031918579
 20
716.2461951050262
 30
0.0
 40
25.0
 41
224.7356
 71
     1
 72
     5
  1

 73
     1
 44
1.0
1001
ACAD
1000
MTEXTBEGIN
1070
    73
1070
     1
1070
    44
1040
1.0
1070
    74
1070
     0
1000
MTEXTEND
  0
MTEXT
  5
C18
330
C0F
100
AcDbEntity
  8
0
100
AcDbMText
 10
5861.377520267437
 20
581.1352060686295
 30
0.0
 40
28.0
 41
603.8372
 71
     1
 72
     5
  1

 73
     1
 44
1.0
1001
ACAD
1000
MTEXTBEGIN
1070
    73
1070
     1
1070
    44
1040
1.0
1070
    74
1070
     0
1000
MTEXTEND
  0
MTEXT
  5
C19
330
C0F
100
AcDbEntity
  8
寸法線
  6
Continuous
100
AcDbMText
 10
6229.3046753595
 20
2124.022890384795
 30
0.0
 40
20.0
 41
17.2146
 71
     7
 72
     1
  1

 73
     1
 44
1.0
1001
ACAD
1000
MTEXTBEGIN
1070
    73
1070
     1
1070
    44
1040
1.0
1070
    74
1070
     0
1000
MTEXTEND
  0
MTEXT
  5
C1A
330
C0F
100
AcDbEntity
  8
寸法線
  6
Continuous
100
AcDbMText
 10
6229.3046753595
 20
2224.022890384794
 30
0.0
 40
20.0
 41
17.2146
 71
     7
 72
     1
  1

 73
     1
 44
1.0
1001
ACAD
1000
MTEXTBEGIN
1070
    73
1070
     1
1070
    44
1040
1.0
1070
    74
1070
     0
1000
MTEXTEND
  0
MTEXT
  5
C1B
330
C0F
100
AcDbEntity
  8
寸法線
  6
Continuous
100
AcDbMText
 10
6229.3046753595
 20
2324.022890384795
 30
0.0
 40
20.0
 41
17.2146
 71
     7
 72
     1
  1

 73
     1
 44
1.0
1001
ACAD
1000
MTEXTBEGIN
1070
    73
1070
     1
1070
    44
1040
1.0
1070
    74
1070
     0
1000
MTEXTEND
  0
MTEXT
  5
C1C
330
C0F
100
AcDbEntity
  8
寸法線
  6
Continuous
100
AcDbMText
 10
6229.3046753595
 20
2424.022890384796
 30
0.0
 40
20.0
 41
17.2146
 71
     7
 72
     1
  1

 73
     1
 44
1.0
1001
ACAD
1000
MTEXTBEGIN
1070
    73
1070
     1
1070
    44
1040
1.0
1070
    74
1070
     0
1000
MTEXTEND
  0
MTEXT
  5
C1D
330
C0F
100
AcDbEntity
  8
寸法線
  6
Continuous
100
AcDbMText
 10
2814.888107175875
 20
1906.577186178131
 30
0.0
 40
20.0
 41
17.2146
 71
     7
 72
     1
  1

 73
     1
 44
1.0
1001
ACAD
1000
MTEXTBEGIN
1070
    73
1070
     1
1070
    44
1040
1.0
1070
    74
1070
     0
1000
MTEXTEND
  0
MTEXT
  5
C1E
330
C0F
100
AcDbEntity
  8
寸法線
  6
Continuous
100
AcDbMText
 10
3087.973932175049
 20
3908.080921391317
 30
0.0
 40
30.0
 41
17.2146
 71
     7
 72
     1
  1

 73
     1
 44
1.0
1001
ACAD
1000
MTEXTBEGIN
1070
    73
1070
     1
1070
    44
1040
1.0
1070
    74
1070
     0
1000
MTEXTEND
  0
MTEXT
  5
C1F
330
C0F
100
AcDbEntity
  8
寸法線
  6
Continuous
100
AcDbMText
 10
3701.236519533135
 20
3990.471162188171
 30
0.0
 40
20.0
 41
17.2146
 71
     7
 72
     1
  1

 73
     1
 44
1.0
1001
ACAD
1000
MTEXTBEGIN
1070
    73
1070
     1
1070
    44
1040
1.0
1070
    74
1070
     0
1000
MTEXTEND
  0
MTEXT
  5
C20
330
C0F
100
AcDbEntity
  8
寸法線
  6
Continuous
100
AcDbMText
 10
4442.536519533134
 20
3990.471162188173
 30
0.0
 40
20.0
 41
17.2146
 71
     7
 72
     1
  1

 73
     1
 44
1.0
1001
ACAD
1000
MTEXTBEGIN
1070
    73
1070
     1
1070
    44
1040
1.0
1070
    74
1070
     0
1000
MTEXTEND
  0
MTEXT
  5
C21
330
C0F
100
AcDbEntity
  8
寸法線
  6
Continuous
100
AcDbMText
 10
2814.888107175875
 20
1906.577186178131
 30
0.0
 40
20.0
 41
17.2146
 71
     7
 72
     1
  1

 73
     1
 44
1.0
1001
ACAD
1000
MTEXTBEGIN
1070
    73
1070
     1
1070
    44
1040
1.0
1070
    74
1070
     0
1000
MTEXTEND
  0
MTEXT
  5
C22
330
C0F
100
AcDbEntity
  8
寸法線
  6
Continuous
100
AcDbMText
 10
5013.186519533135
 20
4925.471170188171
 30
0.0
 40
20.0
 41
17.2146
 71
     7
 72
     1
  1

 73
     1
 44
1.0
1001
ACAD
1000
MTEXTBEGIN
1070
    73
1070
     1
1070
    44
1040
1.0
1070
    74
1070
     0
1000
MTEXTEND
  0
MTEXT
  5
C23
330
C0F
100
AcDbEntity
  8
寸法線
  6
Continuous
100
AcDbMText
 10
2802.888107175875
 20
1825.587548799223
 30
0.0
 40
20.0
 41
17.2146
 71
     7
 72
     1
  1

 73
     1
 44
1.0
1001
ACAD
1000
MTEXTBEGIN
1070
    73
1070
     1
1070
    44
1040
1.0
1070
    74
1070
     0
1000
MTEXTEND
  0
MTEXT
  5
C24
330
C0F
100
AcDbEntity
  8
寸法線
  6
Continuous
100
AcDbMText
 10
3075.973932175049
 20
3827.091284012409
 30
0.0
 40
30.0
 41
17.2146
 71
     7
 72
     1
  1

 73
     1
 44
1.0
1001
ACAD
1000
MTEXTBEGIN
1070
    73
1070
     1
1070
    44
1040
1.0
1070
    74
1070
     0
1000
MTEXTEND
  0
MTEXT
  5
C25
330
C0F
100
AcDbEntity
  8
寸法線
  6
Continuous
100
AcDbMText
 10
3689.236519533135
 20
3909.481524809263
 30
0.0
 40
20.0
 41
17.2146
 71
     7
 72
     1
  1

 73
     1
 44
1.0
1001
ACAD
1000
MTEXTBEGIN
1070
    73
1070
     1
1070
    44
1040
1.0
1070
    74
1070
     0
1000
MTEXTEND
  0
MTEXT
  5
C26
330
C0F
100
AcDbEntity
  8
寸法線
  6
Continuous
100
AcDbMText
 10
4430.536519533133
 20
3909.481524809264
 30
0.0
 40
20.0
 41
17.2146
 71
     7
 72
     1
  1

 73
     1
 44
1.0
1001
ACAD
1000
MTEXTBEGIN
1070
    73
1070
     1
1070
    44
1040
1.0
1070
    74
1070
     0
1000
MTEXTEND
  0
MTEXT
  5
C27
330
C0F
100
AcDbEntity
  8
寸法線
  6
Continuous
100
AcDbMText
 10
2802.888107175875
 20
1825.587548799223
 30
0.0
 40
20.0
 41
17.2146
 71
     7
 72
     1
  1

 73
     1
 44
1.0
1001
ACAD
1000
MTEXTBEGIN
1070
    73
1070
     1
1070
    44
1040
1.0
1070
    74
1070
     0
1000
MTEXTEND
  0
MTEXT
  5
C28
330
C0F
100
AcDbEntity
  8
寸法線
  6
Continuous
100
AcDbMText
 10
5001.186519533135
 20
4844.481532809263
 30
0.0
 40
20.0
 41
17.2146
 71
     7
 72
     1
  1

 73
     1
 44
1.0
1001
ACAD
1000
MTEXTBEGIN
1070
    73
1070
     1
1070
    44
1040
1.0
1070
    74
1070
     0
1000
MTEXTEND
  0
MTEXT
  5
C29
330
C0F
100
AcDbEntity
  8
寸法線
  6
Continuous
100
AcDbMText
 10
1927.2729564133
 20
318.0489392923714
 30
0.0
 40
20.0
 41
17.2146
 71
     7
 72
     1
  1

 73
     1
 44
1.0
1001
ACAD
1000
MTEXTBEGIN
1070
    73
1070
     1
1070
    44
1040
1.0
1070
    74
1070
     0
1000
MTEXTEND
  0
MTEXT
  5
C2A
330
C0F
100
AcDbEntity
  8
寸法線
  6
Continuous
100
AcDbMText
 10
2200.358781412475
 20
2319.552674505557
 30
0.0
 40
30.0
 41
17.2146
 71
     7
 72
     1
  1

 73
     1
 44
1.0
1001
ACAD
1000
MTEXTBEGIN
1070
    73
1070
     1
1070
    44
1040
1.0
1070
    74
1070
     0
1000
MTEXTEND
  0
MTEXT
  5
C2B
330
C0F
100
AcDbEntity
  8
寸法線
  6
Continuous
100
AcDbMText
 10
2813.621368770562
 20
2401.942915302412
 30
0.0
 40
20.0
 41
17.2146
 71
     7
 72
     1
  1

 73
     1
 44
1.0
1001
ACAD
1000
MTEXTBEGIN
1070
    73
1070
     1
1070
    44
1040
1.0
1070
    74
1070
     0
1000
MTEXTEND
  0
MTEXT
  5
C2C
330
C0F
100
AcDbEntity
  8
寸法線
  6
Continuous
100
AcDbMText
 10
3554.921368770561
 20
2401.942915302412
 30
0.0
 40
20.0
 41
17.2146
 71
     7
 72
     1
  1

 73
     1
 44
1.0
1001
ACAD
1000
MTEXTBEGIN
1070
    73
1070
     1
1070
    44
1040
1.0
1070
    74
1070
     0
1000
MTEXTEND
  0
MTEXT
  5
C2D
330
C0F
100
AcDbEntity
  8
寸法線
  6
Continuous
100
AcDbMText
 10
1927.2729564133
 20
318.0489392923714
 30
0.0
 40
20.0
 41
17.2146
 71
     7
 72
     1
  1

 73
     1
 44
1.0
1001
ACAD
1000
MTEXTBEGIN
1070
    73
1070
     1
1070
    44
1040
1.0
1070
    74
1070
     0
1000
MTEXTEND
  0
MTEXT
  5
C2E
330
C0F
100
AcDbEntity
  8
寸法線
  6
Continuous
100
AcDbMText
 10
4125.571368770561
 20
3336.942923302411
 30
0.0
 40
20.0
 41
17.2146
 71
     7
 72
     1
  1

 73
     1
 44
1.0
1001
ACAD
1000
MTEXTBEGIN
1070
    73
1070
     1
1070
    44
1040
1.0
1070
    74
1070
     0
1000
MTEXTEND
  0
MTEXT
  5
C2F
330
C0F
100
AcDbEntity
  8
寸法線
  6
Continuous
100
AcDbMText
 10
4634.965096649461
 20
-1575.4058149508
 30
0.0
 40
20.0
 41
17.2146
 71
     7
 72
     1
  1

 73
     1
 44
1.0
1001
ACAD
1000
MTEXTBEGIN
1070
    73
1070
     1
1070
    44
1040
1.0
1070
    74
1070
     0
1000
MTEXTEND
  0
MTEXT
  5
C30
330
C0F
100
AcDbEntity
  8
寸法線
  6
Continuous
100
AcDbMText
 10
4908.050921648637
 20
426.0979202623857
 30
0.0
 40
30.0
 41
17.2146
 71
     7
 72
     1
  1

 73
     1
 44
1.0
1001
ACAD
1000
MTEXTBEGIN
1070
    73
1070
     1
1070
    44
1040
1.0
1070
    74
1070
     0
1000
MTEXTEND
  0
MTEXT
  5
C31
330
C0F
100
AcDbEntity
  8
寸法線
  6
Continuous
100
AcDbMText
 10
5521.313509006724
 20
508.4881610592396
 30
0.0
 40
20.0
 41
17.2146
 71
     7
 72
     1
  1

 73
     1
 44
1.0
1001
ACAD
1000
MTEXTBEGIN
1070
    73
1070
     1
1070
    44
1040
1.0
1070
    74
1070
     0
1000
MTEXTEND
  0
MTEXT
  5
C32
330
C0F
100
AcDbEntity
  8
寸法線
  6
Continuous
100
AcDbMText
 10
6262.613509006722
 20
508.48816105924
 30
0.0
 40
20.0
 41
17.2146
 71
     7
 72
     1
  1

 73
     1
 44
1.0
1001
ACAD
1000
MTEXTBEGIN
1070
    73
1070
     1
1070
    44
1040
1.0
1070
    74
1070
     0
1000
MTEXTEND
  0
MTEXT
  5
C33
330
C0F
100
AcDbEntity
  8
寸法線
  6
Continuous
100
AcDbMText
 10
4634.965096649461
 20
-1575.4058149508
 30
0.0
 40
20.0
 41
17.2146
 71
     7
 72
     1
  1

 73
     1
 44
1.0
1001
ACAD
1000
MTEXTBEGIN
1070
    73
1070
     1
1070
    44
1040
1.0
1070
    74
1070
     0
1000
MTEXTEND
  0
MTEXT
  5
C34
330
C0F
100
AcDbEntity
  8
寸法線
  6
Continuous
100
AcDbMText
 10
6833.263509006723
 20
1443.48816905924
 30
0.0
 40
20.0
 41
17.2146
 71
     7
 72
     1
  1

 73
     1
 44
1.0
1001
ACAD
1000
MTEXTBEGIN
1070
    73
1070
     1
1070
    44
1040
1.0
1070
    74
1070
     0
1000
MTEXTEND
  0
MTEXT
  5
C35
330
C0F
100
AcDbEntity
  8
寸法線
  6
Continuous
100
AcDbMText
 10
5394.263509006723
 20
558.4881610592397
 30
0.0
 40
20.0
 41
17.2146
 71
     7
 72
     1
  1

 73
     1
 44
1.0
1001
ACAD
1000
MTEXTBEGIN
1070
    73
1070
     1
1070
    44
1040
1.0
1070
    74
1070
     0
1000
MTEXTEND
  0
MTEXT
  5
C36
330
C0F
100
AcDbEntity
  8
寸法線
  6
Continuous
100
AcDbMText
 10
3387.833324747969
 20
844.2748908496508
 30
0.0
 40
20.0
 41
17.2146
 71
     7
 72
     1
  1

 11
-1.0
 21
0.0000000000000001
 31
0.0
 73
     1
 44
1.0
1001
ACAD
1000
MTEXTBEGIN
1070
    73
1070
     1
1070
    44
1040
1.0
1070
    74
1070
     0
1000
MTEXTEND
  0
MTEXT
  5
C37
330
C0F
100
AcDbEntity
  8
寸法線
  6
Continuous
100
AcDbMText
 10
3424.118784681946
 20
1691.572689545658
 30
0.0
 40
20.0
 41
17.2146
 71
     7
 72
     1
  1

 73
     1
 44
1.0
1001
ACAD
1000
MTEXTBEGIN
1070
    73
1070
     1
1070
    44
1040
1.0
1070
    74
1070
     0
1000
MTEXTEND
  0
MTEXT
  5
C38
330
C0F
100
AcDbEntity
  8
寸法線
  6
Continuous
100
AcDbMText
 10
3697.204609681121
 20
3693.076424758845
 30
0.0
 40
30.0
 41
17.2146
 71
     7
 72
     1
  1

 73
     1
 44
1.0
1001
ACAD
1000
MTEXTBEGIN
1070
    73
1070
     1
1070
    44
1040
1.0
1070
    74
1070
     0
1000
MTEXTEND
  0
MTEXT
  5
C39
330
C0F
100
AcDbEntity
  8
寸法線
  6
Continuous
100
AcDbMText
 10
4310.467197039208
 20
3775.466665555697
 30
0.0
 40
20.0
 41
17.2146
 71
     7
 72
     1
  1

 73
     1
 44
1.0
1001
ACAD
1000
MTEXTBEGIN
1070
    73
1070
     1
1070
    44
1040
1.0
1070
    74
1070
     0
1000
MTEXTEND
  0
MTEXT
  5
C3A
330
C0F
100
AcDbEntity
  8
寸法線
  6
Continuous
100
AcDbMText
 10
5051.767197039207
 20
3775.466665555699
 30
0.0
 40
20.0
 41
17.2146
 71
     7
 72
     1
  1

 73
     1
 44
1.0
1001
ACAD
1000
MTEXTBEGIN
1070
    73
1070
     1
1070
    44
1040
1.0
1070
    74
1070
     0
1000
MTEXTEND
  0
MTEXT
  5
C3B
330
C0F
100
AcDbEntity
  8
寸法線
  6
Continuous
100
AcDbMText
 10
3424.118784681946
 20
1691.572689545658
 30
0.0
 40
20.0
 41
17.2146
 71
     7
 72
     1
  1

 73
     1
 44
1.0
1001
ACAD
1000
MTEXTBEGIN
1070
    73
1070
     1
1070
    44
1040
1.0
1070
    74
1070
     0
1000
MTEXTEND
  0
MTEXT
  5
C3C
330
C0F
100
AcDbEntity
  8
寸法線
  6
Continuous
100
AcDbMText
 10
5622.417197039206
 20
4710.466673555695
 30
0.0
 40
20.0
 41
17.2146
 71
     7
 72
     1
  1

 73
     1
 44
1.0
1001
ACAD
1000
MTEXTBEGIN
1070
    73
1070
     1
1070
    44
1040
1.0
1070
    74
1070
     0
1000
MTEXTEND
  0
MTEXT
  5
C3D
330
C0F
100
AcDbEntity
  8
寸法線
  6
Continuous
100
AcDbMText
 10
4760.659681197019
 20
727.546027624079
 30
0.0
 40
16.0
 41
13.77168
 71
     7
 72
     1
  1

 11
-1.0
 21
0.0000000000000001
 31
0.0
 73
     1
 44
1.0
1001
ACAD
1000
MTEXTBEGIN
1070
    73
1070
     1
1070
    44
1040
1.0
1070
    74
1070
     0
1000
MTEXTEND
  0
MTEXT
  5
C3E
330
C0F
100
AcDbEntity
  8
寸法線
  6
Continuous
100
AcDbMText
 10
4542.191021197679
 20
-873.6569605464696
 30
0.0
 40
24.0
 41
13.77168
 71
     7
 72
     1
  1

 11
-1.0
 21
0.0000000000000001
 31
0.0
 73
     1
 44
1.0
1001
ACAD
1000
MTEXTBEGIN
1070
    73
1070
     1
1070
    44
1040
1.0
1070
    74
1070
     0
1000
MTEXTEND
  0
MTEXT
  5
C3F
330
C0F
100
AcDbEntity
  8
寸法線
  6
Continuous
100
AcDbMText
 10
4051.580951311211
 20
-939.5691531839528
 30
0.0
 40
16.0
 41
13.77168
 71
     7
 72
     1
  1

 11
-1.0
 21
0.0000000000000001
 31
0.0
 73
     1
 44
1.0
1001
ACAD
1000
MTEXTBEGIN
1070
    73
1070
     1
1070
    44
1040
1.0
1070
    74
1070
     0
1000
MTEXTEND
  0
MTEXT
  5
C40
330
C0F
100
AcDbEntity
  8
寸法線
  6
Continuous
100
AcDbMText
 10
3458.540951311211
 20
-939.5691531839528
 30
0.0
 40
16.0
 41
13.77168
 71
     7
 72
     1
  1

 11
-1.0
 21
0.0000000000000001
 31
0.0
 73
     1
 44
1.0
1001
ACAD
1000
MTEXTBEGIN
1070
    73
1070
     1
1070
    44
1040
1.0
1070
    74
1070
     0
1000
MTEXTEND
  0
MTEXT
  5
C41
330
C0F
100
AcDbEntity
  8
寸法線
  6
Continuous
100
AcDbMText
 10
4760.659681197019
 20
727.546027624079
 30
0.0
 40
16.0
 41
13.77168
 71
     7
 72
     1
  1

 11
-1.0
 21
0.0000000000000001
 31
0.0
 73
     1
 44
1.0
1001
ACAD
1000
MTEXTBEGIN
1070
    73
1070
     1
1070
    44
1040
1.0
1070
    74
1070
     0
1000
MTEXTEND
  0
MTEXT
  5
C42
330
C0F
100
AcDbEntity
  8
寸法線
  6
Continuous
100
AcDbMText
 10
3002.020951311211
 20
-1687.569159583953
 30
0.0
 40
16.0
 41
13.77168
 71
     7
 72
     1
  1

 11
-1.0
 21
0.0000000000000001
 31
0.0
 73
     1
 44
1.0
1001
ACAD
1000
MTEXTBEGIN
1070
    73
1070
     1
1070
    44
1040
1.0
1070
    74
1070
     0
1000
MTEXTEND
  0
MTEXT
  5
C43
330
C0F
100
AcDbEntity
  8
寸法線
  6
Continuous
100
AcDbMText
 10
3428.139271165147
 20
86.54996384325166
 30
0.0
 40
16.0
 41
13.77168
 71
     7
 72
     1
  1

 11
-1.0
 21
0.0000000000000001
 31
0.0
 73
     1
 44
1.0
1001
ACAD
1000
MTEXTBEGIN
1070
    73
1070
     1
1070
    44
1040
1.0
1070
    74
1070
     0
1000
MTEXTEND
  0
MTEXT
  5
C44
330
C0F
100
AcDbEntity
  8
寸法線
  6
Continuous
100
AcDbMText
 10
3209.670611165808
 20
-1514.653024327297
 30
0.0
 40
24.0
 41
13.77168
 71
     7
 72
     1
  1

 11
-1.0
 21
0.0000000000000001
 31
0.0
 73
     1
 44
1.0
1001
ACAD
1000
MTEXTBEGIN
1070
    73
1070
     1
1070
    44
1040
1.0
1070
    74
1070
     0
1000
MTEXTEND
  0
MTEXT
  5
C45
330
C0F
100
AcDbEntity
  8
寸法線
  6
Continuous
100
AcDbMText
 10
2719.060541279338
 20
-1580.56521696478
 30
0.0
 40
16.0
 41
13.77168
 71
     7
 72
     1
  1

 11
-1.0
 21
0.0000000000000001
 31
0.0
 73
     1
 44
1.0
1001
ACAD
1000
MTEXTBEGIN
1070
    73
1070
     1
1070
    44
1040
1.0
1070
    74
1070
     0
1000
MTEXTEND
  0
MTEXT
  5
C46
330
C0F
100
AcDbEntity
  8
寸法線
  6
Continuous
100
AcDbMText
 10
2126.020541279339
 20
-1580.56521696478
 30
0.0
 40
16.0
 41
13.77168
 71
     7
 72
     1
  1

 11
-1.0
 21
0.0000000000000001
 31
0.0
 73
     1
 44
1.0
1001
ACAD
1000
MTEXTBEGIN
1070
    73
1070
     1
1070
    44
1040
1.0
1070
    74
1070
     0
1000
MTEXTEND
  0
MTEXT
  5
C47
330
C0F
100
AcDbEntity
  8
寸法線
  6
Continuous
100
AcDbMText
 10
3428.139271165147
 20
86.54996384325166
 30
0.0
 40
16.0
 41
13.77168
 71
     7
 72
     1
  1

 11
-1.0
 21
0.0000000000000001
 31
0.0
 73
     1
 44
1.0
1001
ACAD
1000
MTEXTBEGIN
1070
    73
1070
     1
1070
    44
1040
1.0
1070
    74
1070
     0
1000
MTEXTEND
  0
MTEXT
  5
C48
330
C0F
100
AcDbEntity
  8
寸法線
  6
Continuous
100
AcDbMText
 10
1669.500541279338
 20
-2328.56522336478
 30
0.0
 40
16.0
 41
13.77168
 71
     7
 72
     1
  1

 11
-1.0
 21
0.0000000000000001
 31
0.0
 73
     1
 44
1.0
1001
ACAD
1000
MTEXTBEGIN
1070
    73
1070
     1
1070
    44
1040
1.0
1070
    74
1070
     0
1000
MTEXTEND
  0
MTEXT
  5
C49
330
C0F
100
AcDbEntity
  8
寸法線
  6
Continuous
100
AcDbMText
 10
4420.396138383735
 20
-1393.734845892645
 30
0.0
 40
20.0
 41
17.2146
 71
     7
 72
     1
  1

 73
     1
 44
1.0
1001
ACAD
1000
MTEXTBEGIN
1070
    73
1070
     1
1070
    44
1040
1.0
1070
    74
1070
     0
1000
MTEXTEND
  0
MTEXT
  5
C4A
330
C0F
100
AcDbEntity
  8
寸法線
  6
Continuous
100
AcDbMText
 10
4693.481963382911
 20
607.7688893205409
 30
0.0
 40
30.0
 41
17.2146
 71
     7
 72
     1
  1

 73
     1
 44
1.0
1001
ACAD
1000
MTEXTBEGIN
1070
    73
1070
     1
1070
    44
1040
1.0
1070
    74
1070
     0
1000
MTEXTEND
  0
MTEXT
  5
C4B
330
C0F
100
AcDbEntity
  8
寸法線
  6
Continuous
100
AcDbMText
 10
5306.744550740996
 20
690.1591301173947
 30
0.0
 40
20.0
 41
17.2146
 71
     7
 72
     1
  1

 73
     1
 44
1.0
1001
ACAD
1000
MTEXTBEGIN
1070
    73
1070
     1
1070
    44
1040
1.0
1070
    74
1070
     0
1000
MTEXTEND
  0
MTEXT
  5
C4C
330
C0F
100
AcDbEntity
  8
寸法線
  6
Continuous
100
AcDbMText
 10
6048.044550740996
 20
690.1591301173953
 30
0.0
 40
20.0
 41
17.2146
 71
     7
 72
     1
  1

 73
     1
 44
1.0
1001
ACAD
1000
MTEXTBEGIN
1070
    73
1070
     1
1070
    44
1040
1.0
1070
    74
1070
     0
1000
MTEXTEND
  0
MTEXT
  5
C4D
330
C0F
100
AcDbEntity
  8
寸法線
  6
Continuous
100
AcDbMText
 10
4420.396138383735
 20
-1393.734845892645
 30
0.0
 40
20.0
 41
17.2146
 71
     7
 72
     1
  1

 73
     1
 44
1.0
1001
ACAD
1000
MTEXTBEGIN
1070
    73
1070
     1
1070
    44
1040
1.0
1070
    74
1070
     0
1000
MTEXTEND
  0
MTEXT
  5
C4E
330
C0F
100
AcDbEntity
  8
寸法線
  6
Continuous
100
AcDbMText
 10
6618.694550740997
 20
1625.159138117395
 30
0.0
 40
20.0
 41
17.2146
 71
     7
 72
     1
  1

 73
     1
 44
1.0
1001
ACAD
1000
MTEXTBEGIN
1070
    73
1070
     1
1070
    44
1040
1.0
1070
    74
1070
     0
1000
MTEXTEND
  0
MTEXT
  5
C4F
330
C0F
100
AcDbEntity
  8
寸法線
  6
Continuous
100
AcDbMText
 10
3520.725852316764
 20
1651.885744746307
 30
0.0
 40
20.0
 41
17.2146
 71
     7
 72
     1
  1

 73
     1
 44
1.0
1001
ACAD
1000
MTEXTBEGIN
1070
    73
1070
     1
1070
    44
1040
1.0
1070
    74
1070
     0
1000
MTEXTEND
  0
MTEXT
  5
C50
330
C0F
100
AcDbEntity
  8
寸法線
  6
Continuous
100
AcDbMText
 10
3793.811677315938
 20
3653.389479959493
 30
0.0
 40
30.0
 41
17.2146
 71
     7
 72
     1
  1

 73
     1
 44
1.0
1001
ACAD
1000
MTEXTBEGIN
1070
    73
1070
     1
1070
    44
1040
1.0
1070
    74
1070
     0
1000
MTEXTEND
  0
MTEXT
  5
C51
330
C0F
100
AcDbEntity
  8
寸法線
  6
Continuous
100
AcDbMText
 10
4407.074264674025
 20
3735.779720756347
 30
0.0
 40
20.0
 41
17.2146
 71
     7
 72
     1
  1

 73
     1
 44
1.0
1001
ACAD
1000
MTEXTBEGIN
1070
    73
1070
     1
1070
    44
1040
1.0
1070
    74
1070
     0
1000
MTEXTEND
  0
MTEXT
  5
C52
330
C0F
100
AcDbEntity
  8
寸法線
  6
Continuous
100
AcDbMText
 10
5148.374264674026
 20
3735.779720756348
 30
0.0
 40
20.0
 41
17.2146
 71
     7
 72
     1
  1

 73
     1
 44
1.0
1001
ACAD
1000
MTEXTBEGIN
1070
    73
1070
     1
1070
    44
1040
1.0
1070
    74
1070
     0
1000
MTEXTEND
  0
MTEXT
  5
C53
330
C0F
100
AcDbEntity
  8
寸法線
  6
Continuous
100
AcDbMText
 10
3520.725852316764
 20
1651.885744746307
 30
0.0
 40
20.0
 41
17.2146
 71
     7
 72
     1
  1

 73
     1
 44
1.0
1001
ACAD
1000
MTEXTBEGIN
1070
    73
1070
     1
1070
    44
1040
1.0
1070
    74
1070
     0
1000
MTEXTEND
  0
MTEXT
  5
C54
330
C0F
100
AcDbEntity
  8
寸法線
  6
Continuous
100
AcDbMText
 10
5719.024264674025
 20
4670.779728756346
 30
0.0
 40
20.0
 41
17.2146
 71
     7
 72
     1
  1

 73
     1
 44
1.0
1001
ACAD
1000
MTEXTBEGIN
1070
    73
1070
     1
1070
    44
1040
1.0
1070
    74
1070
     0
1000
MTEXTEND
  0
MTEXT
  5
C55
330
C0F
100
AcDbEntity
  8
寸法線
  6
Continuous
100
AcDbMText
 10
3254.707561324073
 20
1950.20662955523
 30
0.0
 40
20.0
 41
17.2146
 71
     7
 72
     1
  1

 73
     1
 44
1.0
1001
ACAD
1000
MTEXTBEGIN
1070
    73
1070
     1
1070
    44
1040
1.0
1070
    74
1070
     0
1000
MTEXTEND
  0
MTEXT
  5
C56
330
C0F
100
AcDbEntity
  8
寸法線
  6
Continuous
100
AcDbMText
 10
3527.793386323247
 20
3951.710364768416
 30
0.0
 40
30.0
 41
17.2146
 71
     7
 72
     1
  1

 73
     1
 44
1.0
1001
ACAD
1000
MTEXTBEGIN
1070
    73
1070
     1
1070
    44
1040
1.0
1070
    74
1070
     0
1000
MTEXTEND
  0
MTEXT
  5
C57
330
C0F
100
AcDbEntity
  8
寸法線
  6
Continuous
100
AcDbMText
 10
2792.534572172564
 20
3924.143015920678
 30
0.0
 40
20.0
 41
17.2146
 71
     7
 72
     1
  1

 73
     1
 44
1.0
1001
ACAD
1000
MTEXTBEGIN
1070
    73
1070
     1
1070
    44
1040
1.0
1070
    74
1070
     0
1000
MTEXTEND
  0
MTEXT
  5
C58
330
C0F
100
AcDbEntity
  8
寸法線
  6
Continuous
100
AcDbMText
 10
3254.707561324073
 20
1932.70662955523
 30
0.0
 40
20.0
 41
17.2146
 71
     7
 72
     1
  1

 73
     1
 44
1.0
1001
ACAD
1000
MTEXTBEGIN
1070
    73
1070
     1
1070
    44
1040
1.0
1070
    74
1070
     0
1000
MTEXTEND
  0
MTEXT
  5
C59
330
C0F
100
AcDbEntity
  8
寸法線
  6
Continuous
100
AcDbMText
 10
3527.793386323247
 20
3934.210364768416
 30
0.0
 40
30.0
 41
17.2146
 71
     7
 72
     1
  1

 73
     1
 44
1.0
1001
ACAD
1000
MTEXTBEGIN
1070
    73
1070
     1
1070
    44
1040
1.0
1070
    74
1070
     0
1000
MTEXTEND
  0
MTEXT
  5
C5A
330
C0F
100
AcDbEntity
  8
寸法線
  6
Continuous
100
AcDbMText
 10
2792.534572172564
 20
3906.643015920678
 30
0.0
 40
20.0
 41
17.2146
 71
     7
 72
     1
  1

 73
     1
 44
1.0
1001
ACAD
1000
MTEXTBEGIN
1070
    73
1070
     1
1070
    44
1040
1.0
1070
    74
1070
     0
1000
MTEXTEND
  0
MTEXT
  5
C5B
330
C0F
100
AcDbEntity
  8
寸法線
  6
Continuous
100
AcDbMText
 10
3254.707561324073
 20
1882.70662955523
 30
0.0
 40
20.0
 41
17.2146
 71
     7
 72
     1
  1

 73
     1
 44
1.0
1001
ACAD
1000
MTEXTBEGIN
1070
    73
1070
     1
1070
    44
1040
1.0
1070
    74
1070
     0
1000
MTEXTEND
  0
MTEXT
  5
C5C
330
C0F
100
AcDbEntity
  8
寸法線
  6
Continuous
100
AcDbMText
 10
3527.793386323247
 20
3884.210364768416
 30
0.0
 40
30.0
 41
17.2146
 71
     7
 72
     1
  1

 73
     1
 44
1.0
1001
ACAD
1000
MTEXTBEGIN
1070
    73
1070
     1
1070
    44
1040
1.0
1070
    74
1070
     0
1000
MTEXTEND
  0
MTEXT
  5
C5D
330
C0F
100
AcDbEntity
  8
寸法線
  6
Continuous
100
AcDbMText
 10
2792.534572172564
 20
3856.643015920678
 30
0.0
 40
20.0
 41
17.2146
 71
     7
 72
     1
  1

 73
     1
 44
1.0
1001
ACAD
1000
MTEXTBEGIN
1070
    73
1070
     1
1070
    44
1040
1.0
1070
    74
1070
     0
1000
MTEXTEND
  0
MTEXT
  5
C5E
330
C0F
100
AcDbEntity
  8
寸法線
  6
Continuous
100
AcDbMText
 10
3254.707561324073
 20
1832.70662955523
 30
0.0
 40
20.0
 41
17.2146
 71
     7
 72
     1
  1

 73
     1
 44
1.0
1001
ACAD
1000
MTEXTBEGIN
1070
    73
1070
     1
1070
    44
1040
1.0
1070
    74
1070
     0
1000
MTEXTEND
  0
MTEXT
  5
C5F
330
C0F
100
AcDbEntity
  8
寸法線
  6
Continuous
100
AcDbMText
 10
3527.793386323247
 20
3834.210364768416
 30
0.0
 40
30.0
 41
17.2146
 71
     7
 72
     1
  1

 73
     1
 44
1.0
1001
ACAD
1000
MTEXTBEGIN
1070
    73
1070
     1
1070
    44
1040
1.0
1070
    74
1070
     0
1000
MTEXTEND
  0
MTEXT
  5
C60
330
C0F
100
AcDbEntity
  8
寸法線
  6
Continuous
100
AcDbMText
 10
2792.534572172564
 20
3806.643015920678
 30
0.0
 40
20.0
 41
17.2146
 71
     7
 72
     1
  1

 73
     1
 44
1.0
1001
ACAD
1000
MTEXTBEGIN
1070
    73
1070
     1
1070
    44
1040
1.0
1070
    74
1070
     0
1000
MTEXTEND
  0
MTEXT
  5
C61
330
C0F
100
AcDbEntity
  8
寸法線
  6
Continuous
100
AcDbMText
 10
3254.707561324073
 20
1782.70662955523
 30
0.0
 40
20.0
 41
17.2146
 71
     7
 72
     1
  1

 73
     1
 44
1.0
1001
ACAD
1000
MTEXTBEGIN
1070
    73
1070
     1
1070
    44
1040
1.0
1070
    74
1070
     0
1000
MTEXTEND
  0
MTEXT
  5
C62
330
C0F
100
AcDbEntity
  8
寸法線
  6
Continuous
100
AcDbMText
 10
3527.793386323247
 20
3784.210364768416
 30
0.0
 40
30.0
 41
17.2146
 71
     7
 72
     1
  1

 73
     1
 44
1.0
1001
ACAD
1000
MTEXTBEGIN
1070
    73
1070
     1
1070
    44
1040
1.0
1070
    74
1070
     0
1000
MTEXTEND
  0
MTEXT
  5
C63
330
C0F
100
AcDbEntity
  8
寸法線
  6
Continuous
100
AcDbMText
 10
2792.534572172564
 20
3756.643015920678
 30
0.0
 40
20.0
 41
17.2146
 71
     7
 72
     1
  1

 73
     1
 44
1.0
1001
ACAD
1000
MTEXTBEGIN
1070
    73
1070
     1
1070
    44
1040
1.0
1070
    74
1070
     0
1000
MTEXTEND
  0
MTEXT
  5
C64
330
C0F
100
AcDbEntity
  8
寸法線
  6
Continuous
100
AcDbMText
 10
3254.707561324073
 20
1732.70662955523
 30
0.0
 40
20.0
 41
17.2146
 71
     7
 72
     1
  1

 73
     1
 44
1.0
1001
ACAD
1000
MTEXTBEGIN
1070
    73
1070
     1
1070
    44
1040
1.0
1070
    74
1070
     0
1000
MTEXTEND
  0
MTEXT
  5
C65
330
C0F
100
AcDbEntity
  8
寸法線
  6
Continuous
100
AcDbMText
 10
3527.793386323247
 20
3734.210364768415
 30
0.0
 40
30.0
 41
17.2146
 71
     7
 72
     1
  1

 73
     1
 44
1.0
1001
ACAD
1000
MTEXTBEGIN
1070
    73
1070
     1
1070
    44
1040
1.0
1070
    74
1070
     0
1000
MTEXTEND
  0
MTEXT
  5
C66
330
C0F
100
AcDbEntity
  8
寸法線
  6
Continuous
100
AcDbMText
 10
2792.534572172564
 20
3706.643015920678
 30
0.0
 40
20.0
 41
17.2146
 71
     7
 72
     1
  1

 73
     1
 44
1.0
1001
ACAD
1000
MTEXTBEGIN
1070
    73
1070
     1
1070
    44
1040
1.0
1070
    74
1070
     0
1000
MTEXTEND
  0
MTEXT
  5
C67
330
C0F
100
AcDbEntity
  8
寸法線
  6
Continuous
100
AcDbMText
 10
3254.707561324073
 20
1682.70662955523
 30
0.0
 40
20.0
 41
17.2146
 71
     7
 72
     1
  1

 73
     1
 44
1.0
1001
ACAD
1000
MTEXTBEGIN
1070
    73
1070
     1
1070
    44
1040
1.0
1070
    74
1070
     0
1000
MTEXTEND
  0
MTEXT
  5
C68
330
C0F
100
AcDbEntity
  8
寸法線
  6
Continuous
100
AcDbMText
 10
3527.793386323247
 20
3684.210364768417
 30
0.0
 40
30.0
 41
17.2146
 71
     7
 72
     1
  1

 73
     1
 44
1.0
1001
ACAD
1000
MTEXTBEGIN
1070
    73
1070
     1
1070
    44
1040
1.0
1070
    74
1070
     0
1000
MTEXTEND
  0
MTEXT
  5
C69
330
C0F
100
AcDbEntity
  8
寸法線
  6
Continuous
100
AcDbMText
 10
2792.534572172564
 20
3656.643015920678
 30
0.0
 40
20.0
 41
17.2146
 71
     7
 72
     1
  1

 73
     1
 44
1.0
1001
ACAD
1000
MTEXTBEGIN
1070
    73
1070
     1
1070
    44
1040
1.0
1070
    74
1070
     0
1000
MTEXTEND
  0
MTEXT
  5
C6A
330
C0F
100
AcDbEntity
  8
寸法線
  6
Continuous
100
AcDbMText
 10
3254.707561324073
 20
1632.70662955523
 30
0.0
 40
20.0
 41
17.2146
 71
     7
 72
     1
  1

 73
     1
 44
1.0
1001
ACAD
1000
MTEXTBEGIN
1070
    73
1070
     1
1070
    44
1040
1.0
1070
    74
1070
     0
1000
MTEXTEND
  0
MTEXT
  5
C6B
330
C0F
100
AcDbEntity
  8
寸法線
  6
Continuous
100
AcDbMText
 10
3527.793386323247
 20
3634.210364768416
 30
0.0
 40
30.0
 41
17.2146
 71
     7
 72
     1
  1

 73
     1
 44
1.0
1001
ACAD
1000
MTEXTBEGIN
1070
    73
1070
     1
1070
    44
1040
1.0
1070
    74
1070
     0
1000
MTEXTEND
  0
MTEXT
  5
C6C
330
C0F
100
AcDbEntity
  8
寸法線
  6
Continuous
100
AcDbMText
 10
2792.534572172564
 20
3606.643015920678
 30
0.0
 40
20.0
 41
17.2146
 71
     7
 72
     1
  1

 73
     1
 44
1.0
1001
ACAD
1000
MTEXTBEGIN
1070
    73
1070
     1
1070
    44
1040
1.0
1070
    74
1070
     0
1000
MTEXTEND
  0
MTEXT
  5
C6D
330
C0F
100
AcDbEntity
  8
寸法線
  6
Continuous
100
AcDbMText
 10
2562.710713804617
 20
666.2181883698398
 30
0.0
 40
20.0
 41
17.2146
 71
     7
 72
     1
  1

 73
     1
 44
1.0
1001
ACAD
1000
MTEXTBEGIN
1070
    73
1070
     1
1070
    44
1040
1.0
1070
    74
1070
     0
1000
MTEXTEND
  0
MTEXT
  5
C6E
330
C0F
100
AcDbEntity
  8
寸法線
  6
Continuous
100
AcDbMText
 10
2835.796538803792
 20
2667.721923583026
 30
0.0
 40
30.0
 41
17.2146
 71
     7
 72
     1
  1

 73
     1
 44
1.0
1001
ACAD
1000
MTEXTBEGIN
1070
    73
1070
     1
1070
    44
1040
1.0
1070
    74
1070
     0
1000
MTEXTEND
  0
MTEXT
  5
C6F
330
C0F
100
AcDbEntity
  8
寸法線
  6
Continuous
100
AcDbMText
 10
3449.059126161877
 20
2750.112164379881
 30
0.0
 40
20.0
 41
17.2146
 71
     7
 72
     1
  1

 73
     1
 44
1.0
1001
ACAD
1000
MTEXTBEGIN
1070
    73
1070
     1
1070
    44
1040
1.0
1070
    74
1070
     0
1000
MTEXTEND
  0
MTEXT
  5
C70
330
C0F
100
AcDbEntity
  8
寸法線
  6
Continuous
100
AcDbMText
 10
4190.359126161878
 20
2750.112164379881
 30
0.0
 40
20.0
 41
17.2146
 71
     7
 72
     1
  1

 73
     1
 44
1.0
1001
ACAD
1000
MTEXTBEGIN
1070
    73
1070
     1
1070
    44
1040
1.0
1070
    74
1070
     0
1000
MTEXTEND
  0
MTEXT
  5
C71
330
C0F
100
AcDbEntity
  8
寸法線
  6
Continuous
100
AcDbMText
 10
2562.710713804617
 20
666.2181883698398
 30
0.0
 40
20.0
 41
17.2146
 71
     7
 72
     1
  1

 73
     1
 44
1.0
1001
ACAD
1000
MTEXTBEGIN
1070
    73
1070
     1
1070
    44
1040
1.0
1070
    74
1070
     0
1000
MTEXTEND
  0
MTEXT
  5
C72
330
C0F
100
AcDbEntity
  8
寸法線
  6
Continuous
100
AcDbMText
 10
4761.009126161878
 20
3685.11217237988
 30
0.0
 40
20.0
 41
17.2146
 71
     7
 72
     1
  1

 73
     1
 44
1.0
1001
ACAD
1000
MTEXTBEGIN
1070
    73
1070
     1
1070
    44
1040
1.0
1070
    74
1070
     0
1000
MTEXTEND
  0
MTEXT
  5
C73
330
C0F
100
AcDbEntity
  8
寸法線
  6
Continuous
100
AcDbMText
 10
3797.375580721408
 20
555.7946801060333
 30
0.0
 40
20.0
 41
17.2146
 71
     7
 72
     1
  1

 73
     1
 44
1.0
1001
ACAD
1000
MTEXTBEGIN
1070
    73
1070
     1
1070
    44
1040
1.0
1070
    74
1070
     0
1000
MTEXTEND
  0
MTEXT
  5
C74
330
C0F
100
AcDbEntity
  8
寸法線
  6
Continuous
100
AcDbMText
 10
3709.073860315893
 20
1700.001502833864
 30
0.0
 40
20.0
 41
17.2146
 71
     7
 72
     1
  1

 73
     1
 44
1.0
1001
ACAD
1000
MTEXTBEGIN
1070
    73
1070
     1
1070
    44
1040
1.0
1070
    74
1070
     0
1000
MTEXTEND
  0
MTEXT
  5
C75
330
C0F
100
AcDbEntity
  8
寸法線
  6
Continuous
100
AcDbMText
 10
3982.159685315068
 20
3701.50523804705
 30
0.0
 40
30.0
 41
17.2146
 71
     7
 72
     1
  1

 73
     1
 44
1.0
1001
ACAD
1000
MTEXTBEGIN
1070
    73
1070
     1
1070
    44
1040
1.0
1070
    74
1070
     0
1000
MTEXTEND
  0
MTEXT
  5
C76
330
C0F
100
AcDbEntity
  8
寸法線
  6
Continuous
100
AcDbMText
 10
4595.422272673154
 20
3783.895478843904
 30
0.0
 40
20.0
 41
17.2146
 71
     7
 72
     1
  1

 73
     1
 44
1.0
1001
ACAD
1000
MTEXTBEGIN
1070
    73
1070
     1
1070
    44
1040
1.0
1070
    74
1070
     0
1000
MTEXTEND
  0
MTEXT
  5
C77
330
C0F
100
AcDbEntity
  8
寸法線
  6
Continuous
100
AcDbMText
 10
5336.722272673154
 20
3783.895478843904
 30
0.0
 40
20.0
 41
17.2146
 71
     7
 72
     1
  1

 73
     1
 44
1.0
1001
ACAD
1000
MTEXTBEGIN
1070
    73
1070
     1
1070
    44
1040
1.0
1070
    74
1070
     0
1000
MTEXTEND
  0
MTEXT
  5
C78
330
C0F
100
AcDbEntity
  8
寸法線
  6
Continuous
100
AcDbMText
 10
3709.073860315893
 20
1700.001502833864
 30
0.0
 40
20.0
 41
17.2146
 71
     7
 72
     1
  1

 73
     1
 44
1.0
1001
ACAD
1000
MTEXTBEGIN
1070
    73
1070
     1
1070
    44
1040
1.0
1070
    74
1070
     0
1000
MTEXTEND
  0
MTEXT
  5
C79
330
C0F
100
AcDbEntity
  8
寸法線
  6
Continuous
100
AcDbMText
 10
5907.372272673153
 20
4718.895486843903
 30
0.0
 40
20.0
 41
17.2146
 71
     7
 72
     1
  1

 73
     1
 44
1.0
1001
ACAD
1000
MTEXTBEGIN
1070
    73
1070
     1
1070
    44
1040
1.0
1070
    74
1070
     0
1000
MTEXTEND
  0
LWPOLYLINE
  5
C7A
330
C0F
100
AcDbEntity
  8
エンボス
  6
Continuous
100
AcDbPolyline
 90
        4
 70
     1
 43
0.0
 10
-334.3157130905706
 20
286.2431911820901
 10
0.0
 20
286.2431911820901
 10
0.0
 20
0.0
 10
-334.3157130905706
 20
0.0
  0
LINE
  5
C7B
330
C0F
100
AcDbEntity
  8
エンボス
370
     0
100
AcDbLine
 10
-157.5031163161551
 20
191.2365350153615
 30
0.0
 11
-157.5031163161551
 21
11.23653501536151
 31
0.0
  0
LINE
  5
C7C
330
C0F
100
AcDbEntity
  8
エンボス
370
     0
100
AcDbLine
 10
-187.743116316155
 20
191.2365350153615
 30
0.0
 11
-187.743116316155
 21
11.23653501536151
 31
0.0
  0
HATCH
  5
C7D
330
C0F
100
AcDbEntity
  8
エンボス
  6
Continuous
100
AcDbHatch
 10
0.0
 20
0.0
 30
0.0
210
0.0
220
0.0
230
1.0
  2
ANSI31
 70
     0
 71
     0
 91
        6
 92
        7
 72
     0
 73
     1
 93
        4
 10
-176.9431163161553
 20
191.2365350153615
 10
-187.743116316155
 20
191.2365350153615
 10
-187.743116316155
 20
175.6885671314439
 10
-176.9431163161553
 20
175.688567131444
 97
        0
 92
        7
 72
     0
 73
     1
 93
        4
 10
-157.5031163161551
 20
191.2365350153615
 10
-168.3031163161549
 20
191.2365350153615
 10
-168.3031163161549
 20
175.688567131444
 10
-157.5031163161551
 20
175.6885671314439
 97
        0
 92
        7
 72
     0
 73
     1
 93
        4
 10
-157.5031163161551
 20
115.2085671314438
 10
-168.3031163161549
 20
115.2085671314438
 10
-168.3031163161549
 20
89.28856713144389
 10
-157.5031163161551
 20
89.28856713144389
 97
        0
 92
        7
 72
     0
 73
     1
 93
        4
 10
-176.9431163161553
 20
115.2085671314438
 10
-187.743116316155
 20
115.2085671314438
 10
-187.743116316155
 20
89.28856713144389
 10
-176.9431163161553
 20
89.28856713144389
 97
        0
 92
        7
 72
     0
 73
     1
 93
        4
 10
-176.9431163161553
 20
28.80856713144387
 10
-187.743116316155
 20
28.80856713144387
 10
-187.743116316155
 20
11.23653501536153
 10
-176.9431163161553
 20
11.23653501536153
 97
        0
 92
        7
 72
     0
 73
     1
 93
        4
 10
-157.5031163161551
 20
28.80856713144387
 10
-168.3031163161549
 20
28.80856713144387
 10
-168.3031163161549
 20
11.23653501536153
 10
-157.5031163161551
 20
11.23653501536157
 97
        0
 75
     0
 76
     1
 52
0.0
 41
0.5
 77
     0
 78
     1
 53
45.0
 43
-292.3177832596193
 44
-97.7997689801889
 45
-1.122532015133643
 46
1.122532015133643
 79
     0
 47
0.3958305108731848
 98
        6
 10
-177.492220551931
 20
182.18596179209
 10
-166.4005462144209
 20
179.8109787800927
 10
-165.2121529599684
 20
106.1865028791899
 10
-178.2844832168939
 20
105.3948421561894
 10
-178.2844832168939
 20
20.68711276129651
 10
-163.6276276300432
 20
18.70796011079952
  0
LINE
  5
C7E
330
C0F
100
AcDbEntity
  8
エンボス
  6
Continuous
100
AcDbLine
 10
-168.3031163161549
 20
191.2361634953614
 30
0.0
 11
-168.3031163161549
 21
11.23653501536151
 31
0.0
  0
LINE
  5
C7F
330
C0F
100
AcDbEntity
  8
エンボス
  6
Continuous
100
AcDbLine
 10
-176.9431163161553
 20
191.2361634953614
 30
0.0
 11
-176.9431163161553
 21
11.23653501536151
 31
0.0
  0
HATCH
  5
C80
330
C0F
100
AcDbEntity
  8
エンボス
  6
Continuous
100
AcDbHatch
 10
0.0
 20
0.0
 30
0.0
210
0.0
220
0.0
230
1.0
  2
ANSI31
 70
     0
 71
     0
 91
        1
 92
        7
 72
     0
 73
     1
 93
        4
 10
-168.3031163161549
 20
191.2365350153615
 10
-176.9431163161553
 20
191.2365350153615
 10
-176.9431163161553
 20
11.23653501536153
 10
-168.3031163161549
 20
11.23653501536151
 97
        0
 75
     0
 76
     1
 52
0.0
 41
0.5
 77
     0
 78
     1
 53
45.0
 43
-292.3177832596193
 44
-97.7997689801889
 45
-1.122532015133643
 46
1.122532015133643
 79
     0
 47
0.563450176776409
 98
        1
 10
-173.943175600677
 20
172.0013308565483
  0
LINE
  5
C81
330
C0F
100
AcDbEntity
  8
エンボス
  6
Continuous
100
AcDbLine
 10
-187.743116316155
 20
33.12856713144393
 30
0.0
 11
-176.9431163161553
 21
33.12856713144393
 31
0.0
  0
LINE
  5
C82
330
C0F
100
AcDbEntity
  8
エンボス
  6
Continuous
100
AcDbLine
 10
-187.743116316155
 20
28.80856713144387
 30
0.0
 11
-176.9431163161553
 21
28.80856713144387
 31
0.0
  0
LINE
  5
C83
330
C0F
100
AcDbEntity
  8
エンボス
  6
Continuous
100
AcDbLine
 10
-168.3031163161549
 20
33.12856713144393
 30
0.0
 11
-157.5031163161551
 21
33.12856713144393
 31
0.0
  0
LINE
  5
C84
330
C0F
100
AcDbEntity
  8
エンボス
  6
Continuous
100
AcDbLine
 10
-168.3031163161549
 20
28.80856713144387
 30
0.0
 11
-157.5031163161551
 21
28.80856713144387
 31
0.0
  0
LINE
  5
C85
330
C0F
100
AcDbEntity
  8
エンボス
  6
Continuous
100
AcDbLine
 10
-187.743116316155
 20
84.96856713144385
 30
0.0
 11
-176.9431163161553
 21
84.96856713144385
 31
0.0
  0
LINE
  5
C86
330
C0F
100
AcDbEntity
  8
エンボス
  6
Continuous
100
AcDbLine
 10
-187.743116316155
 20
89.28856713144389
 30
0.0
 11
-176.9431163161553
 21
89.28856713144389
 31
0.0
  0
LINE
  5
C87
330
C0F
100
AcDbEntity
  8
エンボス
  6
Continuous
100
AcDbLine
 10
-187.743116316155
 20
115.2085671314438
 30
0.0
 11
-176.9431163161553
 21
115.2085671314438
 31
0.0
  0
LINE
  5
C88
330
C0F
100
AcDbEntity
  8
エンボス
  6
Continuous
100
AcDbLine
 10
-187.743116316155
 20
119.5285671314439
 30
0.0
 11
-176.9431163161553
 21
119.5285671314439
 31
0.0
  0
LINE
  5
C89
330
C0F
100
AcDbEntity
  8
エンボス
  6
Continuous
100
AcDbLine
 10
-187.743116316155
 20
171.3685671314439
 30
0.0
 11
-176.9431163161553
 21
171.368567131444
 31
0.0
  0
LINE
  5
C8A
330
C0F
100
AcDbEntity
  8
エンボス
  6
Continuous
100
AcDbLine
 10
-187.743116316155
 20
175.6885671314439
 30
0.0
 11
-176.9431163161553
 21
175.688567131444
 31
0.0
  0
LINE
  5
C8B
330
C0F
100
AcDbEntity
  8
エンボス
  6
Continuous
100
AcDbLine
 10
-168.3031163161549
 20
115.2085671314438
 30
0.0
 11
-157.5031163161551
 21
115.2085671314438
 31
0.0
  0
LINE
  5
C8C
330
C0F
100
AcDbEntity
  8
エンボス
  6
Continuous
100
AcDbLine
 10
-168.3031163161549
 20
84.96856713144385
 30
0.0
 11
-157.5031163161551
 21
84.96856713144385
 31
0.0
  0
LINE
  5
C8D
330
C0F
100
AcDbEntity
  8
エンボス
  6
Continuous
100
AcDbLine
 10
-168.3031163161549
 20
89.28856713144389
 30
0.0
 11
-157.5031163161551
 21
89.28856713144389
 31
0.0
  0
LINE
  5
C8E
330
C0F
100
AcDbEntity
  8
エンボス
  6
Continuous
100
AcDbLine
 10
-168.3031163161549
 20
119.5285671314439
 30
0.0
 11
-157.5031163161551
 21
119.5285671314439
 31
0.0
  0
LINE
  5
C8F
330
C0F
100
AcDbEntity
  8
エンボス
  6
Continuous
100
AcDbLine
 10
-168.3031163161549
 20
171.368567131444
 30
0.0
 11
-157.5031163161551
 21
171.3685671314439
 31
0.0
  0
LINE
  5
C90
330
C0F
100
AcDbEntity
  8
エンボス
  6
Continuous
100
AcDbLine
 10
-168.3031163161549
 20
175.688567131444
 30
0.0
 11
-157.5031163161551
 21
175.6885671314439
 31
0.0
  0
TEXT
  5
C91
330
C0F
100
AcDbEntity
  8
エンボス
  6
Continuous
100
AcDbText
 10
-294.1412150274573
 20
240.5024615214613
 30
0.0
 40
30.0
  1
HGIB形状詳細
100
AcDbText
1001
ACAD
1000
MTEXTBEGIN
1070
    73
1070
     1
1070
    44
1040
1.0
1070
    74
1070
     0
1000
MTEXTEND
1000
MTEXTBEGIN
1070
    73
1070
     1
1070
    44
1040
1.0
1070
    74
1070
     0
1000
MTEXTEND
1000
MTEXTBEGIN
1070
    73
1070
     1
1070
    44
1040
1.0
1070
    74
1070
     0
1000
MTEXTEND
1000
MTEXTBEGIN
1070
    73
1070
     1
1070
    44
1040
1.0
1070
    74
1070
     0
1000
MTEXTEND
  0
MTEXT
  5
C92
330
C0F
100
AcDbEntity
  8
エンボス
  6
Continuous
100
AcDbMText
 10
-263.7566471803202
 20
226.2734505767348
 30
0.0
 40
15.0
 41
256.2474
 71
     1
 72
     5
  1
※塗りつぶし部分突起
 73
     1
 44
1.0
1001
ACAD
1000
MTEXTBEGIN
1070
    73
1070
     1
1070
    44
1040
1.0
1070
    74
1070
     0
1000
MTEXTEND
  0
ENDBLK
  5
C94
330
C0F
100
AcDbEntity
  8
0
 48
3.0
100
AcDbBlockEnd
  0
BLOCK
  5
E65
330
E5B
100
AcDbEntity
  8
0
 48
3.0
100
AcDbBlockBegin
  2
*D25
 70
     1
 10
0.0
 20
0.0
 30
0.0
  3
*D25
  1

  0
LINE
  5
2A67
330
E5B
100
AcDbEntity
  8
寸法線
 62
     0
 48
3.0
370
    -2
100
AcDbLine
 10
1214.894372662306
 20
1348.654660416729
 30
0.0
 11
1322.394372662306
 21
1348.654660416729
 31
0.0
  0
LINE
  5
2A68
330
E5B
100
AcDbEntity
  8
寸法線
 62
     0
 48
3.0
370
    -2
100
AcDbLine
 10
1217.394372662306
 20
1423.654660416729
 30
0.0
 11
1322.394372662306
 21
1423.654660416729
 31
0.0
  0
LINE
  5
2A69
330
E5B
100
AcDbEntity
  8
寸法線
 62
     0
 48
3.0
370
    -2
100
AcDbLine
 10
1307.394372662306
 20
1363.654660416729
 30
0.0
 11
1307.394372662306
 21
1408.654660416729
 31
0.0
  0
INSERT
  5
2A6A
330
E5B
100
AcDbEntity
  8
寸法線
 62
     0
 48
3.0
370
    -2
100
AcDbBlockReference
  2
_Open30
 10
1307.394372662306
 20
1348.654660416729
 30
0.0
 41
15.0
 42
15.0
 43
15.0
 50
270.0
  0
INSERT
  5
2A6B
330
E5B
100
AcDbEntity
  8
寸法線
 62
     0
 48
3.0
370
    -2
100
AcDbBlockReference
  2
_Open30
 10
1307.394372662306
 20
1423.654660416729
 30
0.0
 41
15.0
 42
15.0
 43
15.0
 50
90.0
  0
MTEXT
  5
2A6C
330
E5B
100
AcDbEntity
  8
寸法線
 62
     0
 48
3.0
100
AcDbMText
 10
1287.394372662306
 20
1386.154660416729
 30
0.0
 40
30.0
 41
0.0
 71
     5
 72
     1
  1
75
 11
0.0000000000000001
 21
1.0
 31
0.0
 73
     1
 44
1.0
1001
ACAD
1000
MTEXTBEGIN
1070
    73
1070
     1
1070
    44
1040
1.0
1070
    74
1070
     0
1000
MTEXTEND
  0
POINT
  5
2A6D
330
E5B
100
AcDbEntity
  8
Defpoints
 62
     0
 48
3.0
100
AcDbPoint
 10
1194.894372662306
 20
1348.654660416729
 30
0.0
  0
POINT
  5
2A6E
330
E5B
100
AcDbEntity
  8
Defpoints
 62
     0
 48
3.0
100
AcDbPoint
 10
1197.394372662306
 20
1423.654660416729
 30
0.0
  0
POINT
  5
2A6F
330
E5B
100
AcDbEntity
  8
Defpoints
 62
     0
 48
3.0
100
AcDbPoint
 10
1307.394372662306
 20
1423.654660416729
 30
0.0
  0
ENDBLK
  5
E66
330
E5B
100
AcDbEntity
  8
0
 48
3.0
100
AcDbBlockEnd
  0
BLOCK
  5
12CF
330
12CB
100
AcDbEntity
  8
0
 48
3.0
100
AcDbBlockBegin
  2
清水
 70
     0
 10
0.0
 20
0.0
 30
0.0
  3
清水
  1

  0
MTEXT
  5
12CC
330
12CB
100
AcDbEntity
  8
外枠
  6
Continuous
100
AcDbMText
 10
40.55333581259037
 20
-88.14888116777728
 30
0.0
 40
28.17460800000001
 41
43.8527
 71
     1
 72
     5
  1
{\fHG正楷書体-PRO|b0|i0|c128|p65;水}
 73
     1
 44
1.0
1001
ACAD
1000
MTEXTBEGIN
1070
    73
1070
     1
1070
    44
1040
1.0
1070
    74
1070
     0
1000
MTEXTEND
  0
MTEXT
  5
12CD
330
12CB
100
AcDbEntity
  8
外枠
  6
Continuous
100
AcDbMText
 10
40.55333581259037
 20
-45.6188562986499
 30
0.0
 40
28.17460800000001
 41
43.8527
 71
     1
 72
     5
  1
{\fHG正楷書体-PRO|b0|i0|c128|p65;清}
 73
     1
 44
1.0
1001
ACAD
1000
MTEXTBEGIN
1070
    73
1070
     1
1070
    44
1040
1.0
1070
    74
1070
     0
1000
MTEXTEND
  0
ELLIPSE
  5
12CE
330
12CB
100
AcDbEntity
  8
外枠
  6
Continuous
100
AcDbEllipse
 10
61.68068686355035
 20
-84.59863033186413
 30
0.0
 11
0.0
 21
-47.85944421494259
 31
0.0
210
0.0
220
0.0
230
1.0
 40
0.7999999999999857
 41
0.0
 42
6.283185307179585
  0
ENDBLK
  5
12D0
330
12CB
100
AcDbEntity
  8
0
 48
3.0
100
AcDbBlockEnd
  0
BLOCK
  5
139B
330
1399
100
AcDbEntity
  8
0
 48
3.0
100
AcDbBlockBegin
  2
GFB新
 70
     0
 10
0.0
 20
0.0
 30
0.0
  3
GFB新
  1

  0
LINE
  5
139C
330
1399
100
AcDbEntity
  8
エンボス
370
     0
100
AcDbLine
 10
-201.8431163161554
 20
211.018054223251
 30
0.0
 11
-201.8431163161554
 21
31.01805422325097
 31
0.0
  0
LINE
  5
139D
330
1399
100
AcDbEntity
  8
エンボス
370
     0
100
AcDbLine
 10
-171.6031163161556
 20
211.018054223251
 30
0.0
 11
-171.6031163161556
 21
31.01805422325097
 31
0.0
  0
LWPOLYLINE
  5
139E
330
1399
100
AcDbEntity
  8
エンボス
  6
Continuous
100
AcDbPolyline
 90
        4
 70
     1
 43
0.0
 10
-348.415713090571
 20
299.7131911820901
 10
-14.10000000000036
 20
299.7131911820901
 10
-14.10000000000036
 20
13.47
 10
-348.415713090571
 20
13.47
  0
HATCH
  5
139F
330
1399
100
AcDbEntity
  8
エンボス
 48
3.0
100
AcDbHatch
 10
0.0
 20
0.0
 30
0.0
210
0.0
220
0.0
230
1.0
  2
ANSI31
 70
     0
 71
     0
 91
        2
 92
        7
 72
     0
 73
     1
 93
        4
 10
-171.6031163161556
 20
183.648232740995
 10
-201.8431163161554
 20
183.648232740995
 10
-201.8431163161554
 20
143.648232740995
 10
-171.6031163161556
 20
143.648232740995
 97
        0
 92
        7
 72
     0
 73
     1
 93
        4
 10
-171.6031163161551
 20
103.648232740995
 10
-201.8431163161554
 20
103.648232740995
 10
-201.8431163161554
 20
63.64823274099503
 10
-171.6031163161556
 20
63.64823274099503
 97
        0
 75
     0
 76
     1
 52
0.0
 41
1.0
 77
     0
 78
     1
 53
45.0
 43
-2600.230945379155
 44
55.27481481577524
 45
-2.245064030267287
 46
2.245064030267287
 79
     0
 47
0.6338635763914874
 98
        2
 10
-184.3538551621914
 20
165.9540090799865
 10
-180.5493471399022
 20
94.32742487381712
  0
LINE
  5
13A0
330
1399
100
AcDbEntity
  8
エンボス
  6
Continuous
100
AcDbLine
 10
-201.8431163161554
 20
183.648232740995
 30
0.0
 11
-171.6031163161551
 21
183.648232740995
 31
0.0
  0
LINE
  5
13A1
330
1399
100
AcDbEntity
  8
エンボス
  6
Continuous
100
AcDbLine
 10
-201.8431163161554
 20
143.648232740995
 30
0.0
 11
-171.6031163161551
 21
143.648232740995
 31
0.0
  0
LINE
  5
13A2
330
1399
100
AcDbEntity
  8
エンボス
  6
Continuous
100
AcDbLine
 10
-201.8431163161554
 20
103.648232740995
 30
0.0
 11
-171.6031163161551
 21
103.648232740995
 31
0.0
  0
LINE
  5
13A3
330
1399
100
AcDbEntity
  8
エンボス
  6
Continuous
100
AcDbLine
 10
-201.8431163161554
 20
63.64823274099503
 30
0.0
 11
-171.6031163161551
 21
63.64823274099503
 31
0.0
  0
TEXT
  5
13A4
330
1399
100
AcDbEntity
  8
エンボス
  6
Continuous
100
AcDbText
 10
-308.2412150274576
 20
253.9724615214614
 30
0.0
 40
30.0
  1
GFB形状詳細
100
AcDbText
1001
ACAD
1000
MTEXTBEGIN
1070
    73
1070
     1
1070
    44
1040
1.0
1070
    74
1070
     0
1000
MTEXTEND
1000
MTEXTBEGIN
1070
    73
1070
     1
1070
    44
1040
1.0
1070
    74
1070
     0
1000
MTEXTEND
1000
MTEXTBEGIN
1070
    73
1070
     1
1070
    44
1040
1.0
1070
    74
1070
     0
1000
MTEXTEND
1000
MTEXTBEGIN
1070
    73
1070
     1
1070
    44
1040
1.0
1070
    74
1070
     0
1000
MTEXTEND
  0
MTEXT
  5
13A5
330
1399
100
AcDbEntity
  8
エンボス
  6
Continuous
100
AcDbMText
 10
-277.8566471803206
 20
239.7434505767348
 30
0.0
 40
15.0
 41
256.2474
 71
     1
 72
     5
  1
※塗りつぶし部分突起
 73
     1
 44
1.0
1001
ACAD
1000
MTEXTBEGIN
1070
    73
1070
     1
1070
    44
1040
1.0
1070
    74
1070
     0
1000
MTEXTEND
  0
ENDBLK
  5
13A6
330
1399
100
AcDbEntity
  8
0
 48
3.0
100
AcDbBlockEnd
  0
BLOCK
  5
13A9
330
13A7
100
AcDbEntity
  8
0
 48
3.0
100
AcDbBlockBegin
  2
鎌下
 70
     0
 10
0.0
 20
0.0
 30
0.0
  3
鎌下
  1

  0
MTEXT
  5
13AA
330
13A7
100
AcDbEntity
  8
外枠
  6
Continuous
100
AcDbMText
 10
40.55333581259037
 20
-88.14888116777728
 30
0.0
 40
28.17460800000001
 41
43.8527
 71
     1
 72
     5
  1
{\fHGSeikaishotaiPRO|b0|i0|c128|p65;下}
 73
     1
 44
1.0
1001
ACAD
1000
MTEXTBEGIN
1070
    73
1070
     1
1070
    44
1040
1.0
1070
    74
1070
     0
1000
MTEXTEND
  0
MTEXT
  5
13AB
330
13A7
100
AcDbEntity
  8
外枠
  6
Continuous
100
AcDbMText
 10
40.55333581259037
 20
-45.6188562986499
 30
0.0
 40
28.17460800000001
 41
43.8527
 71
     1
 72
     5
  1
{\fHGSeikaishotaiPRO|b0|i0|c128|p65;鎌}
 73
     1
 44
1.0
1001
ACAD
1000
MTEXTBEGIN
1070
    73
1070
     1
1070
    44
1040
1.0
1070
    74
1070
     0
1000
MTEXTEND
  0
ELLIPSE
  5
13AC
330
13A7
100
AcDbEntity
  8
外枠
  6
Continuous
100
AcDbEllipse
 10
61.68068686355035
 20
-84.59863033186413
 30
0.0
 11
0.0
 21
-47.85944421494259
 31
0.0
210
0.0
220
0.0
230
1.0
 40
0.7999999999999857
 41
0.0
 42
6.283185307179585
  0
ENDBLK
  5
13AD
330
13A7
100
AcDbEntity
  8
0
 48
3.0
100
AcDbBlockEnd
  0
BLOCK
  5
19D0
330
19CF
100
AcDbEntity
  8
0
 48
3.0
100
AcDbBlockBegin
  2
*D31
 70
     1
 10
0.0
 20
0.0
 30
0.0
  3
*D31
  1

  0
LINE
  5
2A70
330
19CF
100
AcDbEntity
  8
寸法線
  6
Continuous
 62
     0
370
    -2
100
AcDbLine
 10
954.8943726623063
 20
1498.783895011278
 30
0.0
 11
954.8943726623063
 21
1568.654660416729
 31
0.0
  0
LINE
  5
2A71
330
19CF
100
AcDbEntity
  8
寸法線
  6
Continuous
 62
     0
370
    -2
100
AcDbLine
 10
969.8943726623063
 20
1498.783895011278
 30
0.0
 11
969.8943726623063
 21
1568.654660416729
 31
0.0
  0
LINE
  5
2A72
330
19CF
100
AcDbEntity
  8
寸法線
  6
Continuous
 62
     0
370
    -2
100
AcDbLine
 10
939.8943726623064
 20
1553.654660416729
 30
0.0
 11
924.8943726623066
 21
1553.654660416729
 31
0.0
  0
LINE
  5
2A73
330
19CF
100
AcDbEntity
  8
寸法線
  6
Continuous
 62
     0
370
    -2
100
AcDbLine
 10
984.8943726623064
 20
1553.654660416729
 30
0.0
 11
1042.787773677535
 21
1553.654660416729
 31
0.0
  0
LINE
  5
2A74
330
19CF
100
AcDbEntity
  8
寸法線
  6
Continuous
 62
     0
370
    -2
100
AcDbLine
 10
954.8943726623063
 20
1553.654660416729
 30
0.0
 11
969.8943726623063
 21
1553.654660416729
 31
0.0
  0
INSERT
  5
2A75
330
19CF
100
AcDbEntity
  8
寸法線
  6
Continuous
 62
     0
370
    -2
100
AcDbBlockReference
  2
_Open30
 10
954.8943726623063
 20
1553.654660416729
 30
0.0
 41
15.0
 42
15.0
 43
15.0
  0
INSERT
  5
2A76
330
19CF
100
AcDbEntity
  8
寸法線
  6
Continuous
 62
     0
370
    -2
100
AcDbBlockReference
  2
_Open30
 10
969.8943726623063
 20
1553.654660416729
 30
0.0
 41
15.0
 42
15.0
 43
15.0
 50
180.0
  0
MTEXT
  5
2A77
330
19CF
100
AcDbEntity
  8
寸法線
  6
Continuous
 62
     0
100
AcDbMText
 10
1021.341073169921
 20
1573.654660416729
 30
0.0
 40
30.0
 41
0.0
 71
     5
 72
     1
  1
15
 73
     1
 44
1.0
1001
ACAD
1000
MTEXTBEGIN
1070
    73
1070
     1
1070
    44
1040
1.0
1070
    74
1070
     0
1000
MTEXTEND
  0
POINT
  5
2A78
330
19CF
100
AcDbEntity
  8
Defpoints
  6
Continuous
 62
     0
100
AcDbPoint
 10
954.8943726623063
 20
1478.783895011278
 30
0.0
  0
POINT
  5
2A79
330
19CF
100
AcDbEntity
  8
Defpoints
  6
Continuous
 62
     0
100
AcDbPoint
 10
969.8943726623063
 20
1478.783895011278
 30
0.0
  0
POINT
  5
2A7A
330
19CF
100
AcDbEntity
  8
Defpoints
  6
Continuous
 62
     0
100
AcDbPoint
 10
969.8943726623063
 20
1553.654660416729
 30
0.0
  0
ENDBLK
  5
19D1
330
19CF
100
AcDbEntity
  8
0
 48
3.0
100
AcDbBlockEnd
  0
BLOCK
  5
29DF
330
29DE
100
AcDbEntity
  8
0
 48
3.0
100
AcDbBlockBegin
  2
*D33
 70
     1
 10
0.0
 20
0.0
 30
0.0
  3
*D33
  1

  0
LINE
  5
2A7B
330
29DE
100
AcDbEntity
  8
寸法線
  6
Continuous
 62
     0
370
    -2
100
AcDbLine
 10
204.8943726623065
 20
1328.654660416729
 30
0.0
 11
204.8943726623065
 21
1153.654660416729
 31
0.0
  0
LINE
  5
2A7C
330
29DE
100
AcDbEntity
  8
寸法線
  6
Continuous
 62
     0
370
    -2
100
AcDbLine
 10
1194.894372662306
 20
1328.654660416729
 30
0.0
 11
1194.894372662306
 21
1153.654660416729
 31
0.0
  0
LINE
  5
2A7D
330
29DE
100
AcDbEntity
  8
寸法線
  6
Continuous
 62
     0
370
    -2
100
AcDbLine
 10
219.8943726623065
 20
1168.654660416729
 30
0.0
 11
1179.894372662306
 21
1168.654660416729
 31
0.0
  0
INSERT
  5
2A7E
330
29DE
100
AcDbEntity
  8
寸法線
  6
Continuous
 62
     0
370
    -2
100
AcDbBlockReference
  2
_Open30
 10
204.8943726623065
 20
1168.654660416729
 30
0.0
 41
15.0
 42
15.0
 43
15.0
 50
180.0
  0
INSERT
  5
2A7F
330
29DE
100
AcDbEntity
  8
寸法線
  6
Continuous
 62
     0
370
    -2
100
AcDbBlockReference
  2
_Open30
 10
1194.894372662306
 20
1168.654660416729
 30
0.0
 41
15.0
 42
15.0
 43
15.0
  0
MTEXT
  5
2A80
330
29DE
100
AcDbEntity
  8
寸法線
  6
Continuous
 62
     0
100
AcDbMText
 10
699.8943726623065
 20
1188.654660416729
 30
0.0
 40
30.0
 41
0.0
 71
     5
 72
     1
  1
990
 73
     1
 44
1.0
1001
ACAD
1000
MTEXTBEGIN
1070
    73
1070
     1
1070
    44
1040
1.0
1070
    74
1070
     0
1000
MTEXTEND
  0
POINT
  5
2A81
330
29DE
100
AcDbEntity
  8
Defpoints
  6
Continuous
 62
     0
100
AcDbPoint
 10
204.8943726623065
 20
1348.654660416729
 30
0.0
  0
POINT
  5
2A82
330
29DE
100
AcDbEntity
  8
Defpoints
  6
Continuous
 62
     0
100
AcDbPoint
 10
1194.894372662306
 20
1348.654660416729
 30
0.0
  0
POINT
  5
2A83
330
29DE
100
AcDbEntity
  8
Defpoints
  6
Continuous
 62
     0
100
AcDbPoint
 10
1194.894372662306
 20
1168.654660416729
 30
0.0
  0
ENDBLK
  5
29E0
330
29DE
100
AcDbEntity
  8
0
 48
3.0
100
AcDbBlockEnd
  0
BLOCK
  5
2AEE
330
2AED
100
AcDbEntity
  8
0
 48
3.0
100
AcDbBlockBegin
  2
*U34
 70
     1
 10
0.0
 20
0.0
 30
0.0
  3
*U34
  1

  0
LINE
  5
2AF4
330
2AED
100
AcDbEntity
  8
本体
  6
Continuous
100
AcDbLine
 10
-10.00000000000005
 20
25.0
 30
0.0
 11
14.99999999999994
 21
25.0
 31
0.0
  0
LINE
  5
2AF5
330
2AED
100
AcDbEntity
  8
本体
100
AcDbLine
 10
-15.00000000000006
 20
25.0
 30
0.0
 11
-10.00000000000005
 21
25.0
 31
0.0
  0
LINE
  5
2AF6
330
2AED
100
AcDbEntity
  8
本体
100
AcDbLine
 10
-10.00000000000005
 20
25.0
 30
0.0
 11
-10.00000000000005
 21
19.0
 31
0.0
  0
LINE
  5
2AF7
330
2AED
100
AcDbEntity
  8
本体
100
AcDbLine
 10
-10.00000000000005
 20
19.0
 30
0.0
 11
-11.00000000000005
 21
18.0
 31
0.0
  0
LINE
  5
2AF8
330
2AED
100
AcDbEntity
  8
本体
100
AcDbLine
 10
-15.00000000000006
 20
25.0
 30
0.0
 11
-15.00000000000006
 21
19.0
 31
0.0
  0
LINE
  5
2AF9
330
2AED
100
AcDbEntity
  8
本体
100
AcDbLine
 10
-15.00000000000006
 20
19.0
 30
0.0
 11
-14.00000000000005
 21
18.0
 31
0.0
  0
LINE
  5
2AFA
330
2AED
100
AcDbEntity
  8
本体
100
AcDbLine
 10
-15.00000000000006
 20
-25.0
 30
0.0
 11
-10.00000000000005
 21
-25.0
 31
0.0
  0
LINE
  5
2AFB
330
2AED
100
AcDbEntity
  8
本体
100
AcDbLine
 10
-10.00000000000005
 20
-25.0
 30
0.0
 11
-10.00000000000005
 21
-19.0
 31
0.0
  0
LINE
  5
2AFC
330
2AED
100
AcDbEntity
  8
本体
100
AcDbLine
 10
-10.00000000000005
 20
-19.0
 30
0.0
 11
-11.00000000000005
 21
-18.0
 31
0.0
  0
LINE
  5
2AFD
330
2AED
100
AcDbEntity
  8
本体
100
AcDbLine
 10
-15.00000000000006
 20
-25.0
 30
0.0
 11
-15.00000000000006
 21
-19.0
 31
0.0
  0
LINE
  5
2AFE
330
2AED
100
AcDbEntity
  8
本体
100
AcDbLine
 10
-15.00000000000006
 20
-19.0
 30
0.0
 11
-14.00000000000005
 21
-18.0
 31
0.0
  0
LINE
  5
2AFF
330
2AED
100
AcDbEntity
  8
本体
100
AcDbLine
 10
-14.00000000000005
 20
18.0
 30
0.0
 11
-14.00000000000005
 21
-18.0
 31
0.0
  0
LINE
  5
2B00
330
2AED
100
AcDbEntity
  8
本体
100
AcDbLine
 10
-11.00000000000005
 20
18.0
 30
0.0
 11
-11.00000000000005
 21
-18.0
 31
0.0
  0
LINE
  5
2B01
330
2AED
100
AcDbEntity
  8
本体
100
AcDbLine
 10
-15.00000000000006
 20
25.0
 30
0.0
 11
-10.00000000000005
 21
25.0
 31
0.0
  0
LINE
  5
2B02
330
2AED
100
AcDbEntity
  8
本体
100
AcDbLine
 10
-10.00000000000005
 20
25.0
 30
0.0
 11
-10.00000000000005
 21
19.0
 31
0.0
  0
LINE
  5
2B03
330
2AED
100
AcDbEntity
  8
本体
100
AcDbLine
 10
-10.00000000000005
 20
19.0
 30
0.0
 11
-11.00000000000005
 21
18.0
 31
0.0
  0
LINE
  5
2B04
330
2AED
100
AcDbEntity
  8
本体
100
AcDbLine
 10
-15.00000000000006
 20
25.0
 30
0.0
 11
-15.00000000000006
 21
19.0
 31
0.0
  0
LINE
  5
2B05
330
2AED
100
AcDbEntity
  8
本体
100
AcDbLine
 10
-15.00000000000006
 20
19.0
 30
0.0
 11
-14.00000000000005
 21
18.0
 31
0.0
  0
LINE
  5
2B06
330
2AED
100
AcDbEntity
  8
本体
100
AcDbLine
 10
-15.00000000000006
 20
-25.0
 30
0.0
 11
-10.00000000000005
 21
-25.0
 31
0.0
  0
LINE
  5
2B07
330
2AED
100
AcDbEntity
  8
本体
100
AcDbLine
 10
-10.00000000000005
 20
-25.0
 30
0.0
 11
-10.00000000000005
 21
-19.0
 31
0.0
  0
LINE
  5
2B08
330
2AED
100
AcDbEntity
  8
本体
100
AcDbLine
 10
-10.00000000000005
 20
-19.0
 30
0.0
 11
-11.00000000000005
 21
-18.0
 31
0.0
  0
LINE
  5
2B09
330
2AED
100
AcDbEntity
  8
本体
100
AcDbLine
 10
-15.00000000000006
 20
-25.0
 30
0.0
 11
-15.00000000000006
 21
-19.0
 31
0.0
  0
LINE
  5
2B0A
330
2AED
100
AcDbEntity
  8
本体
100
AcDbLine
 10
-15.00000000000006
 20
-19.0
 30
0.0
 11
-14.00000000000005
 21
-18.0
 31
0.0
  0
LINE
  5
2B0B
330
2AED
100
AcDbEntity
  8
本体
100
AcDbLine
 10
-14.00000000000005
 20
18.0
 30
0.0
 11
-14.00000000000005
 21
-18.0
 31
0.0
  0
LINE
  5
2B0C
330
2AED
100
AcDbEntity
  8
本体
100
AcDbLine
 10
-11.00000000000005
 20
18.0
 30
0.0
 11
-11.00000000000005
 21
-18.0
 31
0.0
  0
LINE
  5
2B0D
330
2AED
100
AcDbEntity
  8
本体
100
AcDbLine
 10
-15.00000000000006
 20
25.0
 30
0.0
 11
-10.00000000000005
 21
25.0
 31
0.0
  0
LINE
  5
2B0E
330
2AED
100
AcDbEntity
  8
本体
100
AcDbLine
 10
-10.00000000000005
 20
25.0
 30
0.0
 11
-10.00000000000005
 21
19.0
 31
0.0
  0
LINE
  5
2B0F
330
2AED
100
AcDbEntity
  8
本体
100
AcDbLine
 10
-10.00000000000005
 20
19.0
 30
0.0
 11
-11.00000000000005
 21
18.0
 31
0.0
  0
LINE
  5
2B10
330
2AED
100
AcDbEntity
  8
本体
100
AcDbLine
 10
-15.00000000000006
 20
25.0
 30
0.0
 11
-15.00000000000006
 21
19.0
 31
0.0
  0
LINE
  5
2B11
330
2AED
100
AcDbEntity
  8
本体
100
AcDbLine
 10
-15.00000000000006
 20
19.0
 30
0.0
 11
-14.00000000000005
 21
18.0
 31
0.0
  0
LINE
  5
2B12
330
2AED
100
AcDbEntity
  8
本体
100
AcDbLine
 10
-15.00000000000006
 20
-25.0
 30
0.0
 11
-10.00000000000005
 21
-25.0
 31
0.0
  0
LINE
  5
2B13
330
2AED
100
AcDbEntity
  8
本体
100
AcDbLine
 10
-10.00000000000005
 20
-25.0
 30
0.0
 11
-10.00000000000005
 21
-19.0
 31
0.0
  0
LINE
  5
2B14
330
2AED
100
AcDbEntity
  8
本体
100
AcDbLine
 10
-10.00000000000005
 20
-19.0
 30
0.0
 11
-11.00000000000005
 21
-18.0
 31
0.0
  0
LINE
  5
2B15
330
2AED
100
AcDbEntity
  8
本体
100
AcDbLine
 10
-15.00000000000006
 20
-25.0
 30
0.0
 11
-15.00000000000006
 21
-19.0
 31
0.0
  0
LINE
  5
2B16
330
2AED
100
AcDbEntity
  8
本体
100
AcDbLine
 10
-15.00000000000006
 20
-19.0
 30
0.0
 11
-14.00000000000005
 21
-18.0
 31
0.0
  0
LINE
  5
2B17
330
2AED
100
AcDbEntity
  8
本体
100
AcDbLine
 10
-14.00000000000005
 20
18.0
 30
0.0
 11
-14.00000000000005
 21
-18.0
 31
0.0
  0
LINE
  5
2B18
330
2AED
100
AcDbEntity
  8
本体
100
AcDbLine
 10
-11.00000000000005
 20
18.0
 30
0.0
 11
-11.00000000000005
 21
-18.0
 31
0.0
  0
LINE
  5
2B19
330
2AED
100
AcDbEntity
  8
本体
 48
3.0
100
AcDbLine
 10
-10.00000000000005
 20
-19.0
 30
0.0
 11
14.99999999999994
 21
-19.0
 31
0.0
  0
LINE
  5
2B1A
330
2AED
100
AcDbEntity
  8
本体
  6
Continuous
100
AcDbLine
 10
-10.00000000000005
 20
19.0
 30
0.0
 11
0.0000000000000284
 21
19.0
 31
0.0
  0
LINE
  5
2B1B
330
2AED
100
AcDbEntity
  8
本体
  6
Continuous
100
AcDbLine
 10
-10.00000000000005
 20
19.0
 30
0.0
 11
-0.0000000000000568
 21
25.0
 31
0.0
  0
LINE
  5
2B1C
330
2AED
100
AcDbEntity
  8
本体
 48
3.0
100
AcDbLine
 10
4.999999999999943
 20
25.0
 30
0.0
 11
4.999999999999943
 21
12.0
 31
0.0
  0
LINE
  5
2B1D
330
2AED
100
AcDbEntity
  8
本体
 48
3.0
100
AcDbLine
 10
4.999999999999943
 20
12.0
 30
0.0
 11
-0.0000000000000568
 21
12.0
 31
0.0
  0
LINE
  5
2B1E
330
2AED
100
AcDbEntity
  8
本体
 48
3.0
100
AcDbLine
 10
-0.0000000000000568
 20
12.0
 30
0.0
 11
-0.0000000000000568
 21
25.0
 31
0.0
  0
LINE
  5
2B1F
330
2AED
100
AcDbEntity
  8
本体
  6
Continuous
100
AcDbLine
 10
4.999999999999943
 20
19.0
 30
0.0
 11
15.00000000000003
 21
19.0
 31
0.0
  0
LINE
  5
2B20
330
2AED
100
AcDbEntity
  8
本体
  6
Continuous
100
AcDbLine
 10
4.999999999999943
 20
19.0
 30
0.0
 11
14.99999999999994
 21
25.0
 31
0.0
  0
ENDBLK
  5
2AEF
330
2AED
100
AcDbEntity
  8
0
 48
3.0
100
AcDbBlockEnd
  0
BLOCK
  5
2AF1
330
2AF0
100
AcDbEntity
  8
0
 48
3.0
100
AcDbBlockBegin
  2
*U35
 70
     1
 10
0.0
 20
0.0
 30
0.0
  3
*U35
  1

  0
INSERT
  5
2B2F
330
2AF0
100
AcDbEntity
  8
寸法線
  6
ByBlock
 62
     0
370
    -2
380
     1
100
AcDbBlockReference
  2
*U34
 10
0.0
 20
0.0
 30
0.0
  0
INSERT
  5
2B30
330
2AF0
100
AcDbEntity
  8
寸法線
  6
ByBlock
 62
     0
370
    -2
380
     1
100
AcDbBlockReference
  2
*U34
 10
30.0
 20
0.0
 30
0.0
  0
INSERT
  5
2B31
330
2AF0
100
AcDbEntity
  8
寸法線
  6
ByBlock
 62
     0
370
    -2
380
     1
100
AcDbBlockReference
  2
*U34
 10
60.0
 20
0.0
 30
0.0
  0
INSERT
  5
2B32
330
2AF0
100
AcDbEntity
  8
寸法線
  6
ByBlock
 62
     0
370
    -2
380
     1
100
AcDbBlockReference
  2
*U34
 10
90.0
 20
0.0
 30
0.0
  0
INSERT
  5
2B33
330
2AF0
100
AcDbEntity
  8
寸法線
  6
ByBlock
 62
     0
370
    -2
380
     1
100
AcDbBlockReference
  2
*U34
 10
120.0
 20
0.0
 30
0.0
  0
INSERT
  5
2B34
330
2AF0
100
AcDbEntity
  8
寸法線
  6
ByBlock
 62
     0
370
    -2
380
     1
100
AcDbBlockReference
  2
*U34
 10
150.0
 20
0.0
 30
0.0
  0
INSERT
  5
2B35
330
2AF0
100
AcDbEntity
  8
寸法線
  6
ByBlock
 62
     0
370
    -2
380
     1
100
AcDbBlockReference
  2
*U34
 10
180.0
 20
0.0
 30
0.0
  0
INSERT
  5
2B36
330
2AF0
100
AcDbEntity
  8
寸法線
  6
ByBlock
 62
     0
370
    -2
380
     1
100
AcDbBlockReference
  2
*U34
 10
210.0
 20
0.0
 30
0.0
  0
INSERT
  5
2B37
330
2AF0
100
AcDbEntity
  8
寸法線
  6
ByBlock
 62
     0
370
    -2
380
     1
100
AcDbBlockReference
  2
*U34
 10
240.0
 20
0.0
 30
0.0
  0
INSERT
  5
2B38
330
2AF0
100
AcDbEntity
  8
寸法線
  6
ByBlock
 62
     0
370
    -2
380
     1
100
AcDbBlockReference
  2
*U34
 10
270.0
 20
0.0
 30
0.0
  0
INSERT
  5
2B39
330
2AF0
100
AcDbEntity
  8
寸法線
  6
ByBlock
 62
     0
370
    -2
380
     1
100
AcDbBlockReference
  2
*U34
 10
300.0
 20
0.0
 30
0.0
  0
INSERT
  5
2B3A
330
2AF0
100
AcDbEntity
  8
寸法線
  6
ByBlock
 62
     0
370
    -2
380
     1
100
AcDbBlockReference
  2
*U34
 10
330.0
 20
0.0
 30
0.0
  0
INSERT
  5
2B3B
330
2AF0
100
AcDbEntity
  8
寸法線
  6
ByBlock
 62
     0
370
    -2
380
     1
100
AcDbBlockReference
  2
*U34
 10
360.0
 20
0.0
 30
0.0
  0
INSERT
  5
2B3C
330
2AF0
100
AcDbEntity
  8
寸法線
  6
ByBlock
 62
     0
370
    -2
380
     1
100
AcDbBlockReference
  2
*U34
 10
390.0
 20
0.0
 30
0.0
  0
INSERT
  5
2B3D
330
2AF0
100
AcDbEntity
  8
寸法線
  6
ByBlock
 62
     0
370
    -2
380
     1
100
AcDbBlockReference
  2
*U34
 10
420.0
 20
0.0
 30
0.0
  0
INSERT
  5
2B3E
330
2AF0
100
AcDbEntity
  8
寸法線
  6
ByBlock
 62
     0
370
    -2
380
     1
100
AcDbBlockReference
  2
*U34
 10
450.0
 20
0.0
 30
0.0
  0
INSERT
  5
2B3F
330
2AF0
100
AcDbEntity
  8
寸法線
  6
ByBlock
 62
     0
370
    -2
380
     1
100
AcDbBlockReference
  2
*U34
 10
480.0
 20
0.0
 30
0.0
  0
INSERT
  5
2B40
330
2AF0
100
AcDbEntity
  8
寸法線
  6
ByBlock
 62
     0
370
    -2
380
     1
100
AcDbBlockReference
  2
*U34
 10
510.0
 20
0.0
 30
0.0
  0
INSERT
  5
2B41
330
2AF0
100
AcDbEntity
  8
寸法線
  6
ByBlock
 62
     0
370
    -2
380
     1
100
AcDbBlockReference
  2
*U34
 10
540.0
 20
0.0
 30
0.0
  0
INSERT
  5
2B42
330
2AF0
100
AcDbEntity
  8
寸法線
  6
ByBlock
 62
     0
370
    -2
380
     1
100
AcDbBlockReference
  2
*U34
 10
570.0
 20
0.0
 30
0.0
  0
INSERT
  5
2B43
330
2AF0
100
AcDbEntity
  8
寸法線
  6
ByBlock
 62
     0
370
    -2
380
     1
100
AcDbBlockReference
  2
*U34
 10
600.0
 20
0.0
 30
0.0
  0
INSERT
  5
2B44
330
2AF0
100
AcDbEntity
  8
寸法線
  6
ByBlock
 62
     0
370
    -2
380
     1
100
AcDbBlockReference
  2
*U34
 10
630.0
 20
0.0
 30
0.0
  0
INSERT
  5
2B45
330
2AF0
100
AcDbEntity
  8
寸法線
  6
ByBlock
 62
     0
370
    -2
380
     1
100
AcDbBlockReference
  2
*U34
 10
660.0
 20
0.0
 30
0.0
  0
INSERT
  5
2B46
330
2AF0
100
AcDbEntity
  8
寸法線
  6
ByBlock
 62
     0
370
    -2
380
     1
100
AcDbBlockReference
  2
*U34
 10
690.0
 20
0.0
 30
0.0
  0
INSERT
  5
2B47
330
2AF0
100
AcDbEntity
  8
寸法線
  6
ByBlock
 62
     0
370
    -2
380
     1
100
AcDbBlockReference
  2
*U34
 10
720.0
 20
0.0
 30
0.0
  0
INSERT
  5
2B48
330
2AF0
100
AcDbEntity
  8
寸法線
  6
ByBlock
 62
     0
370
    -2
380
     1
100
AcDbBlockReference
  2
*U34
 10
750.0
 20
0.0
 30
0.0
  0
INSERT
  5
2B49
330
2AF0
100
AcDbEntity
  8
寸法線
  6
ByBlock
 62
     0
370
    -2
380
     1
100
AcDbBlockReference
  2
*U34
 10
780.0
 20
0.0
 30
0.0
  0
INSERT
  5
2B4A
330
2AF0
100
AcDbEntity
  8
寸法線
  6
ByBlock
 62
     0
370
    -2
380
     1
100
AcDbBlockReference
  2
*U34
 10
810.0
 20
0.0
 30
0.0
  0
INSERT
  5
2B4B
330
2AF0
100
AcDbEntity
  8
寸法線
  6
ByBlock
 62
     0
370
    -2
380
     1
100
AcDbBlockReference
  2
*U34
 10
840.0
 20
0.0
 30
0.0
  0
INSERT
  5
2B4C
330
2AF0
100
AcDbEntity
  8
寸法線
  6
ByBlock
 62
     0
370
    -2
380
     1
100
AcDbBlockReference
  2
*U34
 10
870.0
 20
0.0
 30
0.0
  0
INSERT
  5
2B4D
330
2AF0
100
AcDbEntity
  8
寸法線
  6
ByBlock
 62
     0
370
    -2
380
     1
100
AcDbBlockReference
  2
*U34
 10
900.0
 20
0.0
 30
0.0
  0
INSERT
  5
2B4E
330
2AF0
100
AcDbEntity
  8
寸法線
  6
ByBlock
 62
     0
370
    -2
380
     1
100
AcDbBlockReference
  2
*U34
 10
930.0
 20
0.0
 30
0.0
  0
INSERT
  5
2B4F
330
2AF0
100
AcDbEntity
  8
寸法線
  6
ByBlock
 62
     0
370
    -2
380
     1
100
AcDbBlockReference
  2
*U34
 10
960.0
 20
0.0
 30
0.0
  0
ENDBLK
  5
2AF2
330
2AF0
100
AcDbEntity
  8
0
 48
3.0
100
AcDbBlockEnd
  0
BLOCK
  5
2B52
330
2B51
100
AcDbEntity
  8
0
 48
3.0
100
AcDbBlockBegin
  2
*U36
 70
     1
 10
0.0
 20
0.0
 30
0.0
  3
*U36
  1

  0
LINE
  5
2B58
330
2B51
100
AcDbEntity
  8
本体
  6
Continuous
100
AcDbLine
 10
-2.5
 20
305.5
 30
0.0
 11
-2.5
 21
252.9999999999998
 31
0.0
  0
LINE
  5
2B59
330
2B51
100
AcDbEntity
  8
本体
  6
Continuous
100
AcDbLine
 10
-7.5
 20
305.5
 30
0.0
 11
-7.5
 21
252.9999999999998
 31
0.0
  0
LINE
  5
2B5A
330
2B51
100
AcDbEntity
  8
本体
  6
Continuous
100
AcDbLine
 10
-7.5
 20
-305.5000000000001
 30
0.0
 11
-7.5
 21
-253.0000000000001
 31
0.0
  0
LINE
  5
2B5B
330
2B51
100
AcDbEntity
  8
本体
  6
Continuous
100
AcDbLine
 10
-2.5
 20
-305.5000000000001
 30
0.0
 11
-2.5
 21
-253.0000000000001
 31
0.0
  0
INSERT
  5
2B5C
330
2B51
100
AcDbEntity
  8
エンボス
  6
Continuous
100
AcDbBlockReference
  2
A$C61D83440
 10
-7.5
 20
305.5
 30
0.0
  0
INSERT
  5
2B5D
330
2B51
100
AcDbEntity
  8
エンボス
  6
Continuous
100
AcDbBlockReference
  2
A$C61D83440
 10
-7.5
 20
-253.0000000000001
 30
0.0
  0
INSERT
  5
2B5E
330
2B51
100
AcDbEntity
  8
エンボス
  6
Continuous
100
AcDbBlockReference
  2
A$C13EC0CC9
 10
-7.5
 20
246.9999999999998
 30
0.0
  0
INSERT
  5
2B5F
330
2B51
100
AcDbEntity
  8
エンボス
  6
Continuous
100
AcDbBlockReference
  2
A$C13EC0CC9
 10
-7.5
 20
-153.0
 30
0.0
  0
LINE
  5
2B60
330
2B51
100
AcDbEntity
  8
本体
  6
Continuous
100
AcDbLine
 10
-2.5
 20
246.9999999999998
 30
0.0
 11
-2.5
 21
152.9999999999998
 31
0.0
  0
LINE
  5
2B61
330
2B51
100
AcDbEntity
  8
本体
  6
Continuous
100
AcDbLine
 10
-7.5
 20
246.9999999999998
 30
0.0
 11
-7.5
 21
152.9999999999998
 31
0.0
  0
LINE
  5
2B62
330
2B51
100
AcDbEntity
  8
本体
  6
Continuous
100
AcDbLine
 10
-2.5
 20
-153.0
 30
0.0
 11
-2.5
 21
-247.0000000000001
 31
0.0
  0
LINE
  5
2B63
330
2B51
100
AcDbEntity
  8
本体
  6
Continuous
100
AcDbLine
 10
-7.5
 20
-153.0
 30
0.0
 11
-7.5
 21
-247.0000000000001
 31
0.0
  0
LINE
  5
2B64
330
2B51
100
AcDbEntity
  8
本体
  6
Continuous
100
AcDbLine
 10
-7.5
 20
147.0
 30
0.0
 11
-7.5
 21
52.99999999999977
 31
0.0
  0
LINE
  5
2B65
330
2B51
100
AcDbEntity
  8
本体
  6
Continuous
100
AcDbLine
 10
-2.5
 20
147.0
 30
0.0
 11
-2.5
 21
52.99999999999977
 31
0.0
  0
INSERT
  5
2B66
330
2B51
100
AcDbEntity
  8
エンボス
  6
Continuous
100
AcDbBlockReference
  2
A$C13EC0CC9
 10
-7.5
 20
147.0
 30
0.0
  0
INSERT
  5
2B67
330
2B51
100
AcDbEntity
  8
エンボス
  6
Continuous
100
AcDbBlockReference
  2
A$C13EC0CC9
 10
-7.5
 20
47.0
 30
0.0
  0
LINE
  5
2B68
330
2B51
100
AcDbEntity
  8
本体
  6
Continuous
100
AcDbLine
 10
-2.5
 20
47.0
 30
0.0
 11
-2.5
 21
-47.00000000000023
 31
0.0
  0
LINE
  5
2B69
330
2B51
100
AcDbEntity
  8
本体
  6
Continuous
100
AcDbLine
 10
-7.5
 20
47.0
 30
0.0
 11
-7.5
 21
-47.00000000000023
 31
0.0
  0
LINE
  5
2B6A
330
2B51
100
AcDbEntity
  8
本体
  6
Continuous
100
AcDbLine
 10
-7.5
 20
-53.0
 30
0.0
 11
-7.5
 21
-147.0000000000002
 31
0.0
  0
LINE
  5
2B6B
330
2B51
100
AcDbEntity
  8
本体
  6
Continuous
100
AcDbLine
 10
-2.5
 20
-53.0
 30
0.0
 11
-2.5
 21
-147.0000000000002
 31
0.0
  0
INSERT
  5
2B6C
330
2B51
100
AcDbEntity
  8
エンボス
  6
Continuous
100
AcDbBlockReference
  2
A$C13EC0CC9
 10
-7.5
 20
-53.0
 30
0.0
  0
LINE
  5
2B6D
330
2B51
100
AcDbEntity
  8
本体
  6
Continuous
100
AcDbLine
 10
-7.5
 20
246.9999999999998
 30
0.0
 11
7.5
 21
252.9999999999998
 31
0.0
  0
LINE
  5
2B6E
330
2B51
100
AcDbEntity
  8
本体
  6
Continuous
100
AcDbLine
 10
-7.5
 20
-253.0000000000001
 30
0.0
 11
7.5
 21
-247.0000000000001
 31
0.0
  0
LINE
  5
2B6F
330
2B51
100
AcDbEntity
  8
本体
  6
Continuous
100
AcDbLine
 10
-7.5
 20
147.0
 30
0.0
 11
7.5
 21
152.9999999999998
 31
0.0
  0
LINE
  5
2B70
330
2B51
100
AcDbEntity
  8
本体
  6
Continuous
100
AcDbLine
 10
-7.5
 20
47.0
 30
0.0
 11
7.5
 21
52.99999999999977
 31
0.0
  0
LINE
  5
2B71
330
2B51
100
AcDbEntity
  8
本体
  6
Continuous
100
AcDbLine
 10
-7.5
 20
-53.0
 30
0.0
 11
7.5
 21
-47.00000000000023
 31
0.0
  0
LINE
  5
2B72
330
2B51
100
AcDbEntity
  8
本体
  6
Continuous
100
AcDbLine
 10
-7.5
 20
-153.0
 30
0.0
 11
7.5
 21
-147.0000000000002
 31
0.0
  0
ENDBLK
  5
2B53
330
2B51
100
AcDbEntity
  8
0
 48
3.0
100
AcDbBlockEnd
  0
BLOCK
  5
2B55
330
2B54
100
AcDbEntity
  8
0
 48
3.0
100
AcDbBlockBegin
  2
*U37
 70
     1
 10
0.0
 20
0.0
 30
0.0
  3
*U37
  1

  0
INSERT
  5
2B7D
330
2B54
100
AcDbEntity
  8
寸法線
  6
ByBlock
 62
     0
370
    -2
380
     1
100
AcDbBlockReference
  2
*U36
 10
0.0
 20
0.0
 30
0.0
  0
INSERT
  5
2B7E
330
2B54
100
AcDbEntity
  8
寸法線
  6
ByBlock
 62
     0
370
    -2
380
     1
100
AcDbBlockReference
  2
*U36
 10
15.0
 20
0.0
 30
0.0
  0
INSERT
  5
2B7F
330
2B54
100
AcDbEntity
  8
寸法線
  6
ByBlock
 62
     0
370
    -2
380
     1
100
AcDbBlockReference
  2
*U36
 10
30.0
 20
0.0
 30
0.0
  0
INSERT
  5
2B80
330
2B54
100
AcDbEntity
  8
寸法線
  6
ByBlock
 62
     0
370
    -2
380
     1
100
AcDbBlockReference
  2
*U36
 10
45.0
 20
0.0
 30
0.0
  0
INSERT
  5
2B81
330
2B54
100
AcDbEntity
  8
寸法線
  6
ByBlock
 62
     0
370
    -2
380
     1
100
AcDbBlockReference
  2
*U36
 10
60.0
 20
0.0
 30
0.0
  0
INSERT
  5
2B82
330
2B54
100
AcDbEntity
  8
寸法線
  6
ByBlock
 62
     0
370
    -2
380
     1
100
AcDbBlockReference
  2
*U36
 10
75.0
 20
0.0
 30
0.0
  0
INSERT
  5
2B83
330
2B54
100
AcDbEntity
  8
寸法線
  6
ByBlock
 62
     0
370
    -2
380
     1
100
AcDbBlockReference
  2
*U36
 10
90.0
 20
0.0
 30
0.0
  0
INSERT
  5
2B84
330
2B54
100
AcDbEntity
  8
寸法線
  6
ByBlock
 62
     0
370
    -2
380
     1
100
AcDbBlockReference
  2
*U36
 10
105.0
 20
0.0
 30
0.0
  0
INSERT
  5
2B85
330
2B54
100
AcDbEntity
  8
寸法線
  6
ByBlock
 62
     0
370
    -2
380
     1
100
AcDbBlockReference
  2
*U36
 10
120.0
 20
0.0
 30
0.0
  0
INSERT
  5
2B86
330
2B54
100
AcDbEntity
  8
寸法線
  6
ByBlock
 62
     0
370
    -2
380
     1
100
AcDbBlockReference
  2
*U36
 10
135.0
 20
0.0
 30
0.0
  0
INSERT
  5
2B87
330
2B54
100
AcDbEntity
  8
寸法線
  6
ByBlock
 62
     0
370
    -2
380
     1
100
AcDbBlockReference
  2
*U36
 10
150.0
 20
0.0
 30
0.0
  0
INSERT
  5
2B88
330
2B54
100
AcDbEntity
  8
寸法線
  6
ByBlock
 62
     0
370
    -2
380
     1
100
AcDbBlockReference
  2
*U36
 10
165.0
 20
0.0
 30
0.0
  0
INSERT
  5
2B89
330
2B54
100
AcDbEntity
  8
寸法線
  6
ByBlock
 62
     0
370
    -2
380
     1
100
AcDbBlockReference
  2
*U36
 10
180.0
 20
0.0
 30
0.0
  0
INSERT
  5
2B8A
330
2B54
100
AcDbEntity
  8
寸法線
  6
ByBlock
 62
     0
370
    -2
380
     1
100
AcDbBlockReference
  2
*U36
 10
195.0
 20
0.0
 30
0.0
  0
INSERT
  5
2B8B
330
2B54
100
AcDbEntity
  8
寸法線
  6
ByBlock
 62
     0
370
    -2
380
     1
100
AcDbBlockReference
  2
*U36
 10
210.0
 20
0.0
 30
0.0
  0
INSERT
  5
2B8C
330
2B54
100
AcDbEntity
  8
寸法線
  6
ByBlock
 62
     0
370
    -2
380
     1
100
AcDbBlockReference
  2
*U36
 10
225.0
 20
0.0
 30
0.0
  0
INSERT
  5
2B8D
330
2B54
100
AcDbEntity
  8
寸法線
  6
ByBlock
 62
     0
370
    -2
380
     1
100
AcDbBlockReference
  2
*U36
 10
240.0
 20
0.0
 30
0.0
  0
INSERT
  5
2B8E
330
2B54
100
AcDbEntity
  8
寸法線
  6
ByBlock
 62
     0
370
    -2
380
     1
100
AcDbBlockReference
  2
*U36
 10
255.0
 20
0.0
 30
0.0
  0
INSERT
  5
2B8F
330
2B54
100
AcDbEntity
  8
寸法線
  6
ByBlock
 62
     0
370
    -2
380
     1
100
AcDbBlockReference
  2
*U36
 10
270.0
 20
0.0
 30
0.0
  0
INSERT
  5
2B90
330
2B54
100
AcDbEntity
  8
寸法線
  6
ByBlock
 62
     0
370
    -2
380
     1
100
AcDbBlockReference
  2
*U36
 10
285.0
 20
0.0
 30
0.0
  0
INSERT
  5
2B91
330
2B54
100
AcDbEntity
  8
寸法線
  6
ByBlock
 62
     0
370
    -2
380
     1
100
AcDbBlockReference
  2
*U36
 10
300.0
 20
0.0
 30
0.0
  0
INSERT
  5
2B92
330
2B54
100
AcDbEntity
  8
寸法線
  6
ByBlock
 62
     0
370
    -2
380
     1
100
AcDbBlockReference
  2
*U36
 10
315.0
 20
0.0
 30
0.0
  0
INSERT
  5
2B93
330
2B54
100
AcDbEntity
  8
寸法線
  6
ByBlock
 62
     0
370
    -2
380
     1
100
AcDbBlockReference
  2
*U36
 10
330.0
 20
0.0
 30
0.0
  0
INSERT
  5
2B94
330
2B54
100
AcDbEntity
  8
寸法線
  6
ByBlock
 62
     0
370
    -2
380
     1
100
AcDbBlockReference
  2
*U36
 10
345.0
 20
0.0
 30
0.0
  0
INSERT
  5
2B95
330
2B54
100
AcDbEntity
  8
寸法線
  6
ByBlock
 62
     0
370
    -2
380
     1
100
AcDbBlockReference
  2
*U36
 10
360.0
 20
0.0
 30
0.0
  0
INSERT
  5
2B96
330
2B54
100
AcDbEntity
  8
寸法線
  6
ByBlock
 62
     0
370
    -2
380
     1
100
AcDbBlockReference
  2
*U36
 10
375.0
 20
0.0
 30
0.0
  0
INSERT
  5
2B97
330
2B54
100
AcDbEntity
  8
寸法線
  6
ByBlock
 62
     0
370
    -2
380
     1
100
AcDbBlockReference
  2
*U36
 10
390.0
 20
0.0
 30
0.0
  0
INSERT
  5
2B98
330
2B54
100
AcDbEntity
  8
寸法線
  6
ByBlock
 62
     0
370
    -2
380
     1
100
AcDbBlockReference
  2
*U36
 10
405.0
 20
0.0
 30
0.0
  0
INSERT
  5
2B99
330
2B54
100
AcDbEntity
  8
寸法線
  6
ByBlock
 62
     0
370
    -2
380
     1
100
AcDbBlockReference
  2
*U36
 10
420.0
 20
0.0
 30
0.0
  0
INSERT
  5
2B9A
330
2B54
100
AcDbEntity
  8
寸法線
  6
ByBlock
 62
     0
370
    -2
380
     1
100
AcDbBlockReference
  2
*U36
 10
435.0
 20
0.0
 30
0.0
  0
INSERT
  5
2B9B
330
2B54
100
AcDbEntity
  8
寸法線
  6
ByBlock
 62
     0
370
    -2
380
     1
100
AcDbBlockReference
  2
*U36
 10
450.0
 20
0.0
 30
0.0
  0
INSERT
  5
2B9C
330
2B54
100
AcDbEntity
  8
寸法線
  6
ByBlock
 62
     0
370
    -2
380
     1
100
AcDbBlockReference
  2
*U36
 10
465.0
 20
0.0
 30
0.0
  0
INSERT
  5
2B9D
330
2B54
100
AcDbEntity
  8
寸法線
  6
ByBlock
 62
     0
370
    -2
380
     1
100
AcDbBlockReference
  2
*U36
 10
480.0
 20
0.0
 30
0.0
  0
INSERT
  5
2B9E
330
2B54
100
AcDbEntity
  8
寸法線
  6
ByBlock
 62
     0
370
    -2
380
     1
100
AcDbBlockReference
  2
*U36
 10
495.0
 20
0.0
 30
0.0
  0
INSERT
  5
2B9F
330
2B54
100
AcDbEntity
  8
寸法線
  6
ByBlock
 62
     0
370
    -2
380
     1
100
AcDbBlockReference
  2
*U36
 10
510.0
 20
0.0
 30
0.0
  0
INSERT
  5
2BA0
330
2B54
100
AcDbEntity
  8
寸法線
  6
ByBlock
 62
     0
370
    -2
380
     1
100
AcDbBlockReference
  2
*U36
 10
525.0
 20
0.0
 30
0.0
  0
INSERT
  5
2BA1
330
2B54
100
AcDbEntity
  8
寸法線
  6
ByBlock
 62
     0
370
    -2
380
     1
100
AcDbBlockReference
  2
*U36
 10
540.0
 20
0.0
 30
0.0
  0
INSERT
  5
2BA2
330
2B54
100
AcDbEntity
  8
寸法線
  6
ByBlock
 62
     0
370
    -2
380
     1
100
AcDbBlockReference
  2
*U36
 10
555.0
 20
0.0
 30
0.0
  0
INSERT
  5
2BA3
330
2B54
100
AcDbEntity
  8
寸法線
  6
ByBlock
 62
     0
370
    -2
380
     1
100
AcDbBlockReference
  2
*U36
 10
570.0
 20
0.0
 30
0.0
  0
INSERT
  5
2BA4
330
2B54
100
AcDbEntity
  8
寸法線
  6
ByBlock
 62
     0
370
    -2
380
     1
100
AcDbBlockReference
  2
*U36
 10
585.0
 20
0.0
 30
0.0
  0
INSERT
  5
2BA5
330
2B54
100
AcDbEntity
  8
寸法線
  6
ByBlock
 62
     0
370
    -2
380
     1
100
AcDbBlockReference
  2
*U36
 10
600.0
 20
0.0
 30
0.0
  0
INSERT
  5
2BA6
330
2B54
100
AcDbEntity
  8
寸法線
  6
ByBlock
 62
     0
370
    -2
380
     1
100
AcDbBlockReference
  2
*U36
 10
615.0
 20
0.0
 30
0.0
  0
INSERT
  5
2BA7
330
2B54
100
AcDbEntity
  8
寸法線
  6
ByBlock
 62
     0
370
    -2
380
     1
100
AcDbBlockReference
  2
*U36
 10
630.0
 20
0.0
 30
0.0
  0
INSERT
  5
2BA8
330
2B54
100
AcDbEntity
  8
寸法線
  6
ByBlock
 62
     0
370
    -2
380
     1
100
AcDbBlockReference
  2
*U36
 10
645.0
 20
0.0
 30
0.0
  0
INSERT
  5
2BA9
330
2B54
100
AcDbEntity
  8
寸法線
  6
ByBlock
 62
     0
370
    -2
380
     1
100
AcDbBlockReference
  2
*U36
 10
660.0
 20
0.0
 30
0.0
  0
INSERT
  5
2BAA
330
2B54
100
AcDbEntity
  8
寸法線
  6
ByBlock
 62
     0
370
    -2
380
     1
100
AcDbBlockReference
  2
*U36
 10
675.0
 20
0.0
 30
0.0
  0
INSERT
  5
2BAB
330
2B54
100
AcDbEntity
  8
寸法線
  6
ByBlock
 62
     0
370
    -2
380
     1
100
AcDbBlockReference
  2
*U36
 10
690.0
 20
0.0
 30
0.0
  0
INSERT
  5
2BAC
330
2B54
100
AcDbEntity
  8
寸法線
  6
ByBlock
 62
     0
370
    -2
380
     1
100
AcDbBlockReference
  2
*U36
 10
705.0
 20
0.0
 30
0.0
  0
INSERT
  5
2BAD
330
2B54
100
AcDbEntity
  8
寸法線
  6
ByBlock
 62
     0
370
    -2
380
     1
100
AcDbBlockReference
  2
*U36
 10
720.0
 20
0.0
 30
0.0
  0
INSERT
  5
2BAE
330
2B54
100
AcDbEntity
  8
寸法線
  6
ByBlock
 62
     0
370
    -2
380
     1
100
AcDbBlockReference
  2
*U36
 10
735.0
 20
0.0
 30
0.0
  0
INSERT
  5
2BAF
330
2B54
100
AcDbEntity
  8
寸法線
  6
ByBlock
 62
     0
370
    -2
380
     1
100
AcDbBlockReference
  2
*U36
 10
750.0
 20
0.0
 30
0.0
  0
INSERT
  5
2BB0
330
2B54
100
AcDbEntity
  8
寸法線
  6
ByBlock
 62
     0
370
    -2
380
     1
100
AcDbBlockReference
  2
*U36
 10
765.0
 20
0.0
 30
0.0
  0
INSERT
  5
2BB1
330
2B54
100
AcDbEntity
  8
寸法線
  6
ByBlock
 62
     0
370
    -2
380
     1
100
AcDbBlockReference
  2
*U36
 10
780.0
 20
0.0
 30
0.0
  0
INSERT
  5
2BB2
330
2B54
100
AcDbEntity
  8
寸法線
  6
ByBlock
 62
     0
370
    -2
380
     1
100
AcDbBlockReference
  2
*U36
 10
795.0
 20
0.0
 30
0.0
  0
INSERT
  5
2BB3
330
2B54
100
AcDbEntity
  8
寸法線
  6
ByBlock
 62
     0
370
    -2
380
     1
100
AcDbBlockReference
  2
*U36
 10
810.0
 20
0.0
 30
0.0
  0
INSERT
  5
2BB4
330
2B54
100
AcDbEntity
  8
寸法線
  6
ByBlock
 62
     0
370
    -2
380
     1
100
AcDbBlockReference
  2
*U36
 10
825.0
 20
0.0
 30
0.0
  0
INSERT
  5
2BB5
330
2B54
100
AcDbEntity
  8
寸法線
  6
ByBlock
 62
     0
370
    -2
380
     1
100
AcDbBlockReference
  2
*U36
 10
840.0
 20
0.0
 30
0.0
  0
INSERT
  5
2BB6
330
2B54
100
AcDbEntity
  8
寸法線
  6
ByBlock
 62
     0
370
    -2
380
     1
100
AcDbBlockReference
  2
*U36
 10
855.0
 20
0.0
 30
0.0
  0
INSERT
  5
2BB7
330
2B54
100
AcDbEntity
  8
寸法線
  6
ByBlock
 62
     0
370
    -2
380
     1
100
AcDbBlockReference
  2
*U36
 10
870.0
 20
0.0
 30
0.0
  0
INSERT
  5
2BB8
330
2B54
100
AcDbEntity
  8
寸法線
  6
ByBlock
 62
     0
370
    -2
380
     1
100
AcDbBlockReference
  2
*U36
 10
885.0
 20
0.0
 30
0.0
  0
INSERT
  5
2BB9
330
2B54
100
AcDbEntity
  8
寸法線
  6
ByBlock
 62
     0
370
    -2
380
     1
100
AcDbBlockReference
  2
*U36
 10
900.0
 20
0.0
 30
0.0
  0
INSERT
  5
2BBA
330
2B54
100
AcDbEntity
  8
寸法線
  6
ByBlock
 62
     0
370
    -2
380
     1
100
AcDbBlockReference
  2
*U36
 10
915.0
 20
0.0
 30
0.0
  0
INSERT
  5
2BBB
330
2B54
100
AcDbEntity
  8
寸法線
  6
ByBlock
 62
     0
370
    -2
380
     1
100
AcDbBlockReference
  2
*U36
 10
930.0
 20
0.0
 30
0.0
  0
INSERT
  5
2BBC
330
2B54
100
AcDbEntity
  8
寸法線
  6
ByBlock
 62
     0
370
    -2
380
     1
100
AcDbBlockReference
  2
*U36
 10
945.0
 20
0.0
 30
0.0
  0
INSERT
  5
2BBD
330
2B54
100
AcDbEntity
  8
寸法線
  6
ByBlock
 62
     0
370
    -2
380
     1
100
AcDbBlockReference
  2
*U36
 10
960.0
 20
0.0
 30
0.0
  0
ENDBLK
  5
2B56
330
2B54
100
AcDbEntity
  8
0
 48
3.0
100
AcDbBlockEnd
  0
ENDSEC
  0
SECTION
  2
ENTITIES
  0
LINE
  5
12
330
2
100
AcDbEntity
  8
外枠
 48
80.0
370
     9
100
AcDbLine
 10
0.0
 20
0.0
 30
0.0
 11
2789.511161023067
 21
0.0
 31
0.0
  0
LINE
  5
13
330
2
100
AcDbEntity
  8
外枠
 48
80.0
370
     9
100
AcDbLine
 10
2789.511161023071
 20
1973.26911249564
 30
0.0
 11
0.0
 21
1973.26911249564
 31
0.0
  0
LINE
  5
14
330
2
100
AcDbEntity
  8
外枠
 48
100.0
370
     9
100
AcDbLine
 10
10.0
 20
10.0
 30
0.0
 11
2780.119625023061
 21
10.0
 31
0.0
  0
LINE
  5
17
330
2
100
AcDbEntity
  8
外枠
  6
Continuous
 48
100.0
370
     9
100
AcDbLine
 10
9.999999999996363
 20
155.399272820803
 30
0.0
 11
2780.119625023061
 21
155.3992728207995
 31
0.0
  0
LINE
  5
18
330
2
100
AcDbEntity
  8
外枠
  6
Continuous
 48
100.0
370
     9
100
AcDbLine
 10
9.999999999996363
 20
160.0950408208045
 30
0.0
 11
2780.119625023061
 21
160.0950408207973
 31
0.0
  0
LINE
  5
19
330
2
100
AcDbEntity
  8
外枠
 48
100.0
370
     9
100
AcDbLine
 10
10.0
 20
1963.877576495633
 30
0.0
 11
2780.119625023053
 21
1963.877576495637
 31
0.0
  0
LINE
  5
1A
330
2
100
AcDbEntity
  8
外枠
 48
80.0
370
     9
100
AcDbLine
 10
0.0
 20
0.0
 30
0.0
 11
0.0
 21
1973.26911249564
 31
0.0
  0
LINE
  5
1B
330
2
100
AcDbEntity
  8
外枠
 48
100.0
370
     9
100
AcDbLine
 10
10.0
 20
1963.877576495633
 30
0.0
 11
10.0
 21
10.0
 31
0.0
  0
LINE
  5
1C
330
2
100
AcDbEntity
  8
外枠
  6
Continuous
 48
100.0
370
     9
100
AcDbLine
 10
10.0
 20
82.69963641040158
 30
0.0
 11
1153.530108552004
 21
82.69963641039794
 31
0.0
  0
MTEXT
  5
1E
330
2
100
AcDbEntity
  8
外枠
  6
Continuous
 48
100.0
370
     9
100
AcDbMText
 10
246.8574963386418
 20
64.81814764649607
 30
0.0
 40
35.0
 41
532.9183
 71
     1
 72
     5
  1
620\U+00D7995\U+00D750/125
 73
     1
 44
1.0
1001
ACAD
1000
MTEXTBEGIN
1070
    73
1070
     1
1070
    44
1040
1.0
1070
    74
1070
     0
1000
MTEXTEND
  0
MTEXT
  5
1F
330
2
100
AcDbEntity
  8
外枠
  6
Continuous
 48
100.0
370
     9
100
AcDbMText
 10
76.61659604009766
 20
137.3760680266387
 30
0.0
 40
30.0
 41
126.3036
 71
     1
 72
     5
  1
T-14
 73
     1
 44
1.0
1001
ACAD
1000
MTEXTBEGIN
1070
    73
1070
     1
1070
    44
1040
1.0
1070
    74
1070
     0
1000
MTEXTEND
  0
LINE
  5
21
330
2
100
AcDbEntity
  8
外枠
 48
100.0
370
     9
100
AcDbLine
 10
45.0
 20
155.399272820803
 30
0.0
 11
45.0
 21
10.0
 31
0.0
  0
MTEXT
  5
22
330
2
100
AcDbEntity
  8
外枠
  6
Continuous
 48
100.0
370
     9
100
AcDbMText
 10
15.05670849094895
 20
75.82038473524153
 30
0.0
 40
20.0
 41
23.52947333656417
 71
     1
 72
     5
  1
品\P番
 73
     1
 44
1.0
1001
ACAD
1000
MTEXTBEGIN
1070
    73
1070
     1
1070
    44
1040
1.0
1070
    74
1070
     0
1000
MTEXTEND
  0
MTEXT
  5
23
330
2
100
AcDbEntity
  8
外枠
  6
Continuous
 48
100.0
370
     9
100
AcDbMText
 10
14.92010060012399
 20
149.3317229429121
 30
0.0
 40
20.0
 41
30.07989939987533
 71
     1
 72
     5
  1
荷\P重
 73
     1
 44
1.0
1001
ACAD
1000
MTEXTBEGIN
1070
    73
1070
     1
1070
    44
1040
1.0
1070
    74
1070
     0
1000
MTEXTEND
  0
LINE
  5
24
330
2
100
AcDbEntity
  8
外枠
 48
100.0
370
     9
100
AcDbLine
 10
179.1040495562846
 20
155.399272820803
 30
0.0
 11
179.1040495562846
 21
10.0
 31
0.0
  0
MTEXT
  5
25
330
2
100
AcDbEntity
  8
外枠
  6
Continuous
 48
100.0
370
     9
100
AcDbMText
 10
271.7517807368968
 20
133.8572910967996
 30
0.0
 40
30.0
 41
271.6208
 71
     1
 72
     5
  1
500用
 73
     1
 44
1.0
1001
ACAD
1000
MTEXTBEGIN
1070
    73
1070
     1
1070
    44
1040
1.0
1070
    74
1070
     0
1000
MTEXTEND
  0
MTEXT
  5
26
330
2
100
AcDbEntity
  8
外枠
  6
Continuous
 48
100.0
370
     9
100
AcDbMText
 10
184.4346535744698
 20
149.3074501239389
 30
0.0
 40
20.0
 41
29.6694
 71
     1
 72
     5
  1
溝幅
 73
     1
 44
1.0
1001
ACAD
1000
MTEXTBEGIN
1070
    73
1070
     1
1070
    44
1040
1.0
1070
    74
1070
     0
1000
MTEXTEND
  0
LINE
  5
27
330
2
100
AcDbEntity
  8
外枠
 48
100.0
370
     9
100
AcDbLine
 10
214.1040495562847
 20
155.399272820803
 30
0.0
 11
214.1040495562847
 21
82.69963641040158
 31
0.0
  0
MTEXT
  5
28
330
2
100
AcDbEntity
  8
外枠
  6
Continuous
 48
100.0
370
     9
100
AcDbMText
 10
477.8955451146976
 20
149.3074501239389
 30
0.0
 40
20.0
 41
29.6694
 71
     1
 72
     5
  1
品名
 73
     1
 44
1.0
1001
ACAD
1000
MTEXTBEGIN
1070
    73
1070
     1
1070
    44
1040
1.0
1070
    74
1070
     0
1000
MTEXTEND
  0
LINE
  5
29
330
2
100
AcDbEntity
  8
外枠
 48
100.0
370
     9
100
AcDbLine
 10
472.5649410965123
 20
155.399272820803
 30
0.0
 11
472.5649410965123
 21
82.69963641040158
 31
0.0
  0
LINE
  5
2A
330
2
100
AcDbEntity
  8
外枠
 48
100.0
370
     9
100
AcDbLine
 10
507.5649410965125
 20
155.399272820803
 30
0.0
 11
507.5649410965125
 21
82.69963641040158
 31
0.0
  0
MTEXT
  5
2B
330
2
100
AcDbEntity
  8
外枠
  6
Continuous
 48
100.0
370
     9
100
AcDbMText
 10
728.477887653953
 20
76.92551173516403
 30
0.0
 40
20.0
 41
664.6118999999998
 71
     1
 72
     5
  1
摘\P要
 73
     1
 44
1.0
1001
ACAD
1000
MTEXTBEGIN
1070
    73
1070
     1
1070
    44
1040
1.0
1070
    74
1070
     0
1000
MTEXTEND
  0
LINE
  5
2C
330
2
100
AcDbEntity
  8
外枠
 48
100.0
370
     9
100
AcDbLine
 10
723.828237311587
 20
82.6996364103943
 30
0.0
 11
723.828237311587
 21
9.999999999992724
 31
0.0
  0
LINE
  5
2F
330
2
100
AcDbEntity
  8
外枠
 48
100.0
370
     9
100
AcDbLine
 10
758.828237311587
 20
82.6996364103943
 30
0.0
 11
758.828237311587
 21
9.999999999992724
 31
0.0
  0
LINE
  5
31
330
2
100
AcDbEntity
  8
外枠
 48
100.0
370
     9
100
AcDbLine
 10
974.9513069700951
 20
82.6996364103943
 30
0.0
 11
974.9513069700951
 21
9.999999999992724
 31
0.0
  0
MTEXT
  5
32
330
2
100
AcDbEntity
  8
外枠
  6
Continuous
 48
100.0
370
     9
100
AcDbMText
 10
979.7329598959766
 20
74.84825461820583
 30
0.0
 40
20.0
 41
31.38947761565365
 71
     1
 72
     5
  1
材\P質
 73
     1
 44
1.0
1001
ACAD
1000
MTEXTBEGIN
1070
    73
1070
     1
1070
    44
1040
1.0
1070
    74
1070
     0
1000
MTEXTEND
  0
LINE
  5
33
330
2
100
AcDbEntity
  8
外枠
 48
100.0
370
     9
100
AcDbLine
 10
1009.951306970095
 20
82.6996364103943
 30
0.0
 11
1009.951306970095
 21
9.999999999992724
 31
0.0
  0
LINE
  5
37
330
2
100
AcDbEntity
  8
外枠
 48
80.0
370
     9
100
AcDbLine
 10
2789.511161023067
 20
0.0
 30
0.0
 11
2789.511161023071
 21
1973.26911249564
 31
0.0
  0
LINE
  5
38
330
2
100
AcDbEntity
  8
外枠
 48
100.0
370
     9
100
AcDbLine
 10
2780.119625023053
 20
1963.877576495637
 30
0.0
 11
2780.119625023061
 21
10.0
 31
0.0
  0
LINE
  5
3A
330
2
100
AcDbEntity
  8
外枠
 48
3.0
100
AcDbLine
 10
1607.072254912545
 20
61.67068719952067
 30
0.0
 11
2262.173600934632
 21
61.67068719952067
 31
0.0
  0
MTEXT
  5
3B
330
2
100
AcDbEntity
  8
外枠
  6
Continuous
 48
100.0
370
     9
100
AcDbMText
 10
1683.622173868318
 20
50.71504764095289
 30
0.0
 40
30.00024
 41
539.4827578564582
 71
     1
 72
     5
  1
T A K A R A   G R A T I N G
 73
     1
 44
1.0
1001
ACAD
1000
MTEXTBEGIN
1070
    73
1070
     1
1070
    44
1040
1.0
1070
    74
1070
     0
1000
MTEXTEND
  0
MTEXT
  5
3C
330
2
100
AcDbEntity
  8
外枠
  6
Continuous
 48
100.0
370
     9
100
AcDbMText
 10
1728.02061463669
 20
127.1672938476838
 30
0.0
 40
30.0
 41
282.8297
 71
     1
 72
     5
  1
株 式 会 社
 73
     1
 44
1.0
1001
ACAD
1000
MTEXTBEGIN
1070
    73
1070
     1
1070
    44
1040
1.0
1070
    74
1070
     0
1000
MTEXTEND
  0
LINE
  5
3D
330
2
100
AcDbEntity
  8
外枠
  6
Continuous
 48
100.0
370
     9
100
AcDbLine
 10
1508.680137877982
 20
155.3992728208068
 30
0.0
 11
1508.680137877982
 21
10.00000000000364
 31
0.0
  0
LINE
  5
3E
330
2
100
AcDbEntity
  8
外枠
  6
Continuous
 48
100.0
370
     9
100
AcDbLine
 10
1593.95141853916
 20
155.3992728207995
 30
0.0
 11
1593.95141853916
 21
9.999999999996363
 31
0.0
  0
LINE
  5
3F
330
2
100
AcDbEntity
  8
外枠
  6
Continuous
 48
100.0
370
     9
100
AcDbLine
 10
1616.777813337499
 20
106.634063069062
 30
0.0
 11
1612.463999974505
 21
110.08511375945
 31
0.0
  0
LINE
  5
40
330
2
100
AcDbEntity
  8
外枠
  6
Continuous
 48
100.0
370
     9
100
AcDbLine
 10
1616.777813337499
 20
106.634063069062
 30
0.0
 11
1612.463999974505
 21
103.183012378663
 31
0.0
  0
LINE
  5
41
330
2
100
AcDbEntity
  8
外枠
  6
Continuous
 48
100.0
370
     9
100
AcDbLine
 10
1616.777813337505
 20
113.5361644498489
 30
0.0
 11
1612.463999974505
 21
110.08511375945
 31
0.0
  0
LINE
  5
42
330
2
100
AcDbEntity
  8
外枠
  6
Continuous
 48
100.0
370
     9
100
AcDbLine
 10
1616.777813337499
 20
99.73196168827506
 30
0.0
 11
1612.463999974505
 21
103.183012378663
 31
0.0
  0
MTEXT
  5
43
330
2
100
AcDbEntity
  8
外枠
  6
Continuous
 48
100.0
370
     9
100
AcDbMText
 10
1520.476936402745
 20
137.4995509975779
 30
0.0
 40
20.0
 41
1015.1375
 71
     1
 72
     5
  1
57.4
 73
     1
 44
1.0
1001
ACAD
1000
MTEXTBEGIN
1070
    73
1070
     1
1070
    44
1040
1.0
1070
    74
1070
     0
1000
MTEXTEND
  0
MTEXT
  5
44
330
2
100
AcDbEntity
  8
外枠
  6
Continuous
 48
100.0
370
     9
100
AcDbMText
 10
1568.464698185987
 20
108.4136993179927
 30
0.0
 40
18.0
 41
25.456
 71
     1
 72
     5
  1
kg
 73
     1
 44
1.0
1001
ACAD
1000
MTEXTBEGIN
1070
    73
1070
     1
1070
    44
1040
1.0
1070
    74
1070
     0
1000
MTEXTEND
  0
LINE
  5
45
330
2
100
AcDbEntity
  8
外枠
  6
Continuous
 48
100.0
370
     9
100
AcDbLine
 10
1649.122643507042
 20
139.4120285854742
 30
0.0
 11
1653.436456870031
 21
135.9609778950862
 31
0.0
  0
LINE
  5
46
330
2
100
AcDbEntity
  8
外枠
  6
Continuous
 48
100.0
370
     9
100
AcDbLine
 10
1666.377896959009
 20
139.4120285854742
 30
0.0
 11
1662.06408359602
 21
135.9609778950862
 31
0.0
  0
MTEXT
  5
47
330
2
100
AcDbEntity
  8
外枠
  6
Continuous
 48
100.0
370
     9
100
AcDbMText
 10
1642.840555134189
 20
120.8184913847756
 30
0.0
 40
23.95393639053264
 41
23.85059431815661
 71
     1
 72
     5
  1
{\fＭＳ ゴシック|b0|i0|c128|p49;宝}
 73
     1
 44
1.0
1001
ACAD
1000
MTEXTBEGIN
1070
    73
1070
     1
1070
    44
1040
1.0
1070
    74
1070
     0
1000
MTEXTEND
  0
LINE
  5
48
330
2
100
AcDbEntity
  8
外枠
  6
Continuous
 48
100.0
370
     9
100
AcDbLine
 10
1662.06408359602
 20
135.9609778950862
 30
0.0
 11
1694.408913765557
 21
110.08511375945
 31
0.0
  0
LINE
  5
49
330
2
100
AcDbEntity
  8
外枠
  6
Continuous
 48
100.0
370
     9
100
AcDbLine
 10
1657.750270233026
 20
132.5099272046927
 30
0.0
 11
1690.095100402563
 21
106.634063069062
 31
0.0
  0
LINE
  5
4A
330
2
100
AcDbEntity
  8
外枠
  6
Continuous
 48
100.0
370
     9
100
AcDbLine
 10
1690.095100402563
 20
106.634063069062
 30
0.0
 11
1657.750270233026
 21
80.75819893343123
 31
0.0
  0
LINE
  5
4B
330
2
100
AcDbEntity
  8
外枠
  6
Continuous
 48
100.0
370
     9
100
AcDbLine
 10
1694.408913765557
 20
103.183012378663
 30
0.0
 11
1662.06408359602
 21
77.30714824303777
 31
0.0
  0
LINE
  5
4C
330
2
100
AcDbEntity
  8
外枠
  6
Continuous
 48
100.0
370
     9
100
AcDbLine
 10
1657.750270233026
 20
80.75819893342577
 30
0.0
 11
1625.405440063488
 21
106.634063069062
 31
0.0
  0
LINE
  5
4D
330
2
100
AcDbEntity
  8
外枠
  6
Continuous
 48
100.0
370
     9
100
AcDbLine
 10
1653.436456870031
 20
77.30714824303777
 30
0.0
 11
1621.0916267005
 21
103.183012378663
 31
0.0
  0
LINE
  5
4E
330
2
100
AcDbEntity
  8
外枠
  6
Continuous
 48
100.0
370
     9
100
AcDbLine
 10
1621.0916267005
 20
103.183012378663
 30
0.0
 11
1616.777813337505
 21
99.73196168827506
 31
0.0
  0
LINE
  5
4F
330
2
100
AcDbEntity
  8
外枠
  6
Continuous
 48
100.0
370
     9
100
AcDbLine
 10
1653.436456870031
 20
77.30714824303777
 30
0.0
 11
1649.122643507042
 21
73.85609755263884
 31
0.0
  0
LINE
  5
50
330
2
100
AcDbEntity
  8
外枠
  6
Continuous
 48
100.0
370
     9
100
AcDbLine
 10
1653.436456870031
 20
70.40504686224541
 30
0.0
 11
1649.122643507042
 21
73.85609755263884
 31
0.0
  0
LINE
  5
51
330
2
100
AcDbEntity
  8
外枠
  6
Continuous
 48
100.0
370
     9
100
AcDbLine
 10
1657.750270233026
 20
73.85609755263884
 30
0.0
 11
1653.436456870031
 21
70.40504686224541
 31
0.0
  0
LINE
  5
52
330
2
100
AcDbEntity
  8
外枠
  6
Continuous
 48
100.0
370
     9
100
AcDbLine
 10
1666.377896959009
 20
73.85609755263884
 30
0.0
 11
1662.06408359602
 21
70.40504686224541
 31
0.0
  0
LINE
  5
53
330
2
100
AcDbEntity
  8
外枠
  6
Continuous
 48
100.0
370
     9
100
AcDbLine
 10
1662.06408359602
 20
70.40504686224541
 30
0.0
 11
1657.750270233026
 21
73.85609755263884
 31
0.0
  0
LINE
  5
54
330
2
100
AcDbEntity
  8
外枠
  6
Continuous
 48
100.0
370
     9
100
AcDbLine
 10
1666.377896959009
 20
73.85609755263884
 30
0.0
 11
1662.06408359602
 21
77.30714824303777
 31
0.0
  0
LINE
  5
55
330
2
100
AcDbEntity
  8
外枠
  6
Continuous
 48
100.0
370
     9
100
AcDbLine
 10
1657.750270233026
 20
132.5099272046927
 30
0.0
 11
1625.405440063483
 21
106.634063069062
 31
0.0
  0
LINE
  5
56
330
2
100
AcDbEntity
  8
外枠
  6
Continuous
 48
100.0
370
     9
100
AcDbLine
 10
1653.436456870031
 20
135.9609778950862
 30
0.0
 11
1621.0916267005
 21
110.08511375945
 31
0.0
  0
LINE
  5
57
330
2
100
AcDbEntity
  8
外枠
  6
Continuous
 48
100.0
370
     9
100
AcDbLine
 10
1621.0916267005
 20
110.08511375945
 30
0.0
 11
1616.777813337505
 21
113.5361644498489
 31
0.0
  0
LINE
  5
58
330
2
100
AcDbEntity
  8
外枠
  6
Continuous
 48
100.0
370
     9
100
AcDbLine
 10
1694.408913765557
 20
103.183012378663
 30
0.0
 11
1698.722727128541
 21
99.73196168827506
 31
0.0
  0
LINE
  5
59
330
2
100
AcDbEntity
  8
外枠
  6
Continuous
 48
100.0
370
     9
100
AcDbLine
 10
1703.036540491541
 20
103.183012378663
 30
0.0
 11
1698.722727128541
 21
99.73196168827506
 31
0.0
  0
LINE
  5
5A
330
2
100
AcDbEntity
  8
外枠
  6
Continuous
 48
100.0
370
     9
100
AcDbLine
 10
1698.722727128541
 20
113.5361644498489
 30
0.0
 11
1694.408913765557
 21
110.08511375945
 31
0.0
  0
LINE
  5
5B
330
2
100
AcDbEntity
  8
外枠
  6
Continuous
 48
100.0
370
     9
100
AcDbLine
 10
1698.722727128541
 20
106.634063069062
 30
0.0
 11
1703.036540491541
 21
103.183012378663
 31
0.0
  0
LINE
  5
5C
330
2
100
AcDbEntity
  8
外枠
  6
Continuous
 48
100.0
370
     9
100
AcDbLine
 10
1698.722727128541
 20
113.5361644498489
 30
0.0
 11
1703.036540491541
 21
110.08511375945
 31
0.0
  0
LINE
  5
5D
330
2
100
AcDbEntity
  8
外枠
  6
Continuous
 48
100.0
370
     9
100
AcDbLine
 10
1703.036540491541
 20
110.08511375945
 30
0.0
 11
1698.722727128541
 21
106.634063069062
 31
0.0
  0
LINE
  5
5E
330
2
100
AcDbEntity
  8
外枠
  6
Continuous
 48
100.0
370
     9
100
AcDbLine
 10
1653.436456870031
 20
142.8630792758676
 30
0.0
 11
1649.122643507042
 21
139.4120285854742
 31
0.0
  0
LINE
  5
5F
330
2
100
AcDbEntity
  8
外枠
  6
Continuous
 48
100.0
370
     9
100
AcDbLine
 10
1662.06408359602
 20
142.8630792758676
 30
0.0
 11
1666.377896959009
 21
139.4120285854742
 31
0.0
  0
LINE
  5
60
330
2
100
AcDbEntity
  8
外枠
  6
Continuous
 48
100.0
370
     9
100
AcDbLine
 10
1653.436456870031
 20
142.8630792758676
 30
0.0
 11
1657.750270233026
 21
139.4120285854742
 31
0.0
  0
LINE
  5
61
330
2
100
AcDbEntity
  8
外枠
  6
Continuous
 48
100.0
370
     9
100
AcDbLine
 10
1662.06408359602
 20
142.8630792758676
 30
0.0
 11
1657.750270233026
 21
139.4120285854742
 31
0.0
  0
MTEXT
  5
62
330
2
100
AcDbEntity
  8
外枠
  6
Continuous
 48
100.0
370
     9
100
AcDbMText
 10
1982.246612759803
 20
141.5312822365363
 30
0.0
 40
50.0
 41
269.1378
 71
     1
 72
     5
  1
宝 機 材
 73
     1
 44
1.0
1001
ACAD
1000
MTEXTBEGIN
1070
    73
1070
     1
1070
    44
1040
1.0
1070
    74
1070
     0
1000
MTEXTEND
  0
LINE
  5
AB
330
2
100
AcDbEntity
  8
外枠
  6
Continuous
 48
100.0
370
     9
100
AcDbLine
 10
2694.775480668144
 20
78.59726492113622
 30
0.0
 11
2729.639779322774
 21
43.732966266507
 31
0.0
  0
LINE
  5
AC
330
2
100
AcDbEntity
  8
外枠
  6
Continuous
 48
100.0
370
     9
100
AcDbLine
 10
2729.639779322774
 20
113.4615635757691
 30
0.0
 11
2694.775480668144
 21
78.59726492113622
 31
0.0
  0
LINE
  5
AE
330
2
100
AcDbEntity
  8
外枠
  6
Continuous
 48
100.0
370
     9
100
AcDbLine
 10
2271.730765417811
 20
155.3992728207995
 30
0.0
 11
2271.730765417811
 21
10.0
 31
0.0
  0
LINE
  5
AF
330
2
100
AcDbEntity
  8
外枠
  6
Continuous
 48
100.0
370
     9
100
AcDbLine
 10
2387.385592047314
 20
155.3992728207995
 30
0.0
 11
2387.385592047314
 21
9.999999999996363
 31
0.0
  0
MTEXT
  5
B0
330
2
100
AcDbEntity
  8
外枠
  6
Continuous
 48
100.0
370
     9
100
AcDbMText
 10
2518.897970034654
 20
80.52451510381798
 30
0.0
 40
16.435188
 41
274.138099993296
 71
     1
 72
     5
  1
縮尺（A4用紙)
 73
     1
 44
1.0
1001
ACAD
1000
MTEXTBEGIN
1070
    73
1070
     1
1070
    44
1040
1.0
1070
    74
1070
     0
1000
MTEXTEND
  0
LINE
  5
B1
330
2
100
AcDbEntity
  8
外枠
  6
Continuous
 48
100.0
370
     9
100
AcDbLine
 10
2503.04041867681
 20
155.3992728207995
 30
0.0
 11
2503.04041867681
 21
9.999999999996363
 31
0.0
  0
LINE
  5
B2
330
2
100
AcDbEntity
  8
外枠
  6
Continuous
 48
100.0
370
     9
100
AcDbLine
 10
2676.662359028593
 20
155.3992728207995
 30
0.0
 11
2676.662359028593
 21
10.0
 31
0.0
  0
MTEXT
  5
B3
330
2
100
AcDbEntity
  8
外枠
  6
Continuous
 48
100.0
370
     9
100
AcDbMText
 10
2557.587330290393
 20
42.2416190518379
 30
0.0
 40
23.47884
 41
274.138099993296
 71
     1
 72
     5
  1
1：10
 73
     1
 44
1.0
1001
ACAD
1000
MTEXTBEGIN
1070
    73
1070
     1
1070
    44
1040
1.0
1070
    74
1070
     0
1000
MTEXTEND
  0
MTEXT
  5
B4
330
2
100
AcDbEntity
  8
外枠
  6
Continuous
 48
100.0
370
     9
100
AcDbMText
 10
2280.290404386422
 20
149.5129012429788
 30
0.0
 40
18.783072
 41
274.13809060176
 71
     1
 72
     5
  1
Check
 73
     1
 44
1.0
1001
ACAD
1000
MTEXTBEGIN
1070
    73
1070
     1
1070
    44
1040
1.0
1070
    74
1070
     0
1000
MTEXTEND
  0
MTEXT
  5
B5
330
2
100
AcDbEntity
  8
外枠
  6
Continuous
 48
100.0
370
     9
100
AcDbMText
 10
2398.03460165154
 20
149.5129012429788
 30
0.0
 40
18.783072
 41
274.13809060176
 71
     1
 72
     5
  1
Draw
 73
     1
 44
1.0
1001
ACAD
1000
MTEXTBEGIN
1070
    73
1070
     1
1070
    44
1040
1.0
1070
    74
1070
     0
1000
MTEXTEND
  0
LINE
  5
B7
330
2
100
AcDbEntity
  8
外枠
  6
Continuous
 48
100.0
370
     9
100
AcDbLine
 10
2676.662359028593
 20
85.04752041039683
 30
0.0
 11
2503.04041867681
 21
85.04752041039683
 31
0.0
  0
MTEXT
  5
B8
330
2
100
AcDbEntity
  8
外枠
  6
Continuous
 48
100.0
370
     9
100
AcDbMText
 10
2518.897970034654
 20
153.7304166203976
 30
0.0
 40
16.435188
 41
274.138099993296
 71
     1
 72
     5
  1
図面作成日
 73
     1
 44
1.0
1001
ACAD
1000
MTEXTBEGIN
1070
    73
1070
     1
1070
    44
1040
1.0
1070
    74
1070
     0
1000
MTEXTEND
  0
LINE
  5
BA
330
2
100
AcDbEntity
  8
外枠
  6
Continuous
 48
100.0
370
     9
100
AcDbLine
 10
2729.639779322774
 20
43.732966266507
 30
0.0
 11
2764.504077977397
 21
78.59726492113622
 31
0.0
  0
LINE
  5
BB
330
2
100
AcDbEntity
  8
外枠
  6
Continuous
 48
100.0
370
     9
100
AcDbLine
 10
2764.504077977397
 20
78.59726492113622
 30
0.0
 11
2729.639779322774
 21
113.4615635757691
 31
0.0
  0
LINE
  5
C6
330
2
100
AcDbEntity
  8
本体
  6
Continuous
100
AcDbLine
 10
202.3943726623065
 20
929.3243361689057
 30
0.0
 11
1197.394372662306
 21
929.3243361689057
 31
0.0
  0
LINE
  5
C7
330
2
100
AcDbEntity
  8
本体
  6
Continuous
100
AcDbLine
 10
202.3943726623065
 20
924.8243361689057
 30
0.0
 11
1197.394372662306
 21
924.8243361689057
 31
0.0
  0
LINE
  5
C8
330
2
100
AcDbEntity
  8
本体
  6
Continuous
100
AcDbLine
 10
202.3943726623065
 20
872.3243361689055
 30
0.0
 11
1197.394372662306
 21
872.3243361689055
 31
0.0
  0
LINE
  5
C9
330
2
100
AcDbEntity
  8
本体
  6
Continuous
100
AcDbLine
 10
202.3943726623065
 20
866.3243361689055
 30
0.0
 11
1197.394372662306
 21
866.3243361689055
 31
0.0
  0
LINE
  5
D1
330
2
100
AcDbEntity
  8
本体
  6
Continuous
100
AcDbLine
 10
202.3943726623065
 20
866.3243361689055
 30
0.0
 11
217.3943726623065
 21
872.3243361689055
 31
0.0
  0
LINE
  5
D3
330
2
100
AcDbEntity
  8
本体
  6
Continuous
100
AcDbLine
 10
2272.714850642465
 20
1473.654660416729
 30
0.0
 11
2272.714850642465
 21
1423.654660416729
 31
0.0
  0
LINE
  5
D5
330
2
100
AcDbEntity
  8
本体
  6
Continuous
100
AcDbLine
 10
2275.714850642466
 20
1429.654660416729
 30
0.0
 11
2278.714850642466
 21
1473.654660416729
 31
0.0
  0
LINE
  5
D6
330
2
100
AcDbEntity
  8
本体
  6
Continuous
100
AcDbLine
 10
1664.714850642466
 20
1473.654660416729
 30
0.0
 11
1664.714850642466
 21
1423.654660416729
 31
0.0
  0
LINE
  5
D7
330
2
100
AcDbEntity
  8
本体
  6
Continuous
100
AcDbLine
 10
1661.714850642465
 20
1429.654660416729
 30
0.0
 11
1658.714850642464
 21
1473.654660416729
 31
0.0
  0
LINE
  5
D8
330
2
100
AcDbEntity
  8
本体
  6
Continuous
100
AcDbLine
 10
1658.714850642464
 20
1473.654660416729
 30
0.0
 11
2278.714850642466
 21
1473.654660416729
 31
0.0
  0
LINE
  5
D9
330
2
100
AcDbEntity
  8
本体
  6
Continuous
100
AcDbLine
 10
2275.714850642466
 20
1429.654660416729
 30
0.0
 11
1661.714850642465
 21
1429.654660416729
 31
0.0
  0
LINE
  5
DB
330
2
100
AcDbEntity
  8
本体
  6
Continuous
100
AcDbLine
 10
2272.714850642465
 20
1423.654660416729
 30
0.0
 11
1664.714850642466
 21
1423.654660416729
 31
0.0
  0
LINE
  5
DC
330
2
100
AcDbEntity
  8
本体
  6
Continuous
100
AcDbLine
 10
2272.714850642465
 20
1467.654660416729
 30
0.0
 11
1664.714850642466
 21
1467.654660416729
 31
0.0
  0
LEADER
  5
DE
330
2
100
AcDbEntity
  8
寸法線
  6
Continuous
100
AcDbLeader
  3
ISO-25
 73
     0
 74
     0
 75
     1
 40
30.0
 41
230.5583756345177
 76
     3
 10
1197.394372662306
 20
789.8243361689054
 30
0.0
 10
1235.850373961992
 20
860.5350142875604
 30
0.0
 10
1250.850373961992
 20
860.5350142875604
 30
0.0
340
E5
1001
ACAD
1000
DSTYLE
1002
{
1070
     5
1000
OPEN30
1070
    77
1070
     1
1070
   147
1040
0.5
1002
}
  0
MTEXT
  5
E5
102
{ACAD_REACTORS
330
DE
102
}
330
2
100
AcDbEntity
  8
寸法線
  6
Continuous
100
AcDbMText
 10
1255.850373961992
 20
865.5350142875605
 30
0.0
 40
30.0
 41
0.0
 71
     7
 72
     1
  1
HGIB5\U+00D73\U+00D750
 73
     1
 44
1.0
1001
ACAD
1000
MTEXTBEGIN
1070
    73
1070
     1
1070
    44
1040
1.0
1070
    74
1070
     0
1000
MTEXTEND
  0
LEADER
  5
E7
330
2
100
AcDbEntity
  8
寸法線
  6
Continuous
100
AcDbLeader
  3
ISO-25
 73
     0
 74
     0
 75
     1
 40
30.0
 41
35.78680203045685
 76
     3
 10
1197.394372662306
 20
568.7450104151277
 30
0.0
 10
1235.610987853131
 20
639.4556885337823
 30
0.0
 10
1250.610987853131
 20
639.4556885337823
 30
0.0
340
E8
1001
ACAD
1000
DSTYLE
1002
{
1070
     5
1000
OPEN30
1070
    77
1070
     1
1070
   147
1040
0.5
1002
}
  0
MTEXT
  5
E8
102
{ACAD_REACTORS
330
E7
102
}
330
2
100
AcDbEntity
  8
寸法線
  6
Continuous
100
AcDbMText
 10
1255.61098785313
 20
644.4556885337823
 30
0.0
 40
30.0
 41
0.0
 71
     7
 72
     1
  1
TB
 73
     1
 44
1.0
1001
ACAD
1000
MTEXTBEGIN
1070
    73
1070
     1
1070
    44
1040
1.0
1070
    74
1070
     0
1000
MTEXTEND
  0
DIMENSION
  5
F9
330
2
100
AcDbEntity
  8
寸法線
  6
Continuous
100
AcDbDimension
  2
*D8
 10
2118.714850642466
 20
1553.658330465362
 30
0.0
 11
2168.714850642466
 21
1573.658330465362
 31
0.0
 70
    32
 71
     5
 42
100.0
  3
ISO-25
100
AcDbAlignedDimension
 13
2218.714850642466
 23
1473.654660416729
 33
0.0
 14
2118.714850642466
 24
1473.654660416729
 34
0.0
100
AcDbRotatedDimension
  0
DIMENSION
  5
106
330
2
100
AcDbEntity
  8
寸法線
  6
Continuous
100
AcDbDimension
  2
*D9
 10
1658.714850642464
 20
1633.662082348709
 30
0.0
 11
1968.714850642465
 21
1653.662082348709
 31
0.0
 70
    32
 71
     5
 42
620.0
  3
ISO-25
100
AcDbAlignedDimension
 13
2278.714850642466
 23
1473.654660416729
 33
0.0
 14
1658.714850642464
 24
1473.654660416729
 34
0.0
100
AcDbRotatedDimension
  0
DIMENSION
  5
113
330
2
100
AcDbEntity
  8
寸法線
  6
Continuous
100
AcDbDimension
  2
*D10
 10
1668.714849642466
 20
1268.653741908852
 30
0.0
 11
1968.714850642466
 21
1288.653741908852
 31
0.0
 70
    32
 71
     5
 42
600.0000020000002
  3
ISO-25
100
AcDbAlignedDimension
 13
2268.714851642466
 23
1351.654663416729
 33
0.0
 14
1668.714849642466
 24
1351.654663416729
 34
0.0
100
AcDbRotatedDimension
  0
LEADER
  5
120
330
2
100
AcDbEntity
  8
寸法線
  6
Continuous
100
AcDbLeader
  3
ISO-25
 73
     0
 74
     0
 75
     1
 40
36.39593908629441
 41
132.9441624365482
 76
     3
 10
1170.757648011051
 20
929.3243361689057
 30
0.0
 10
1226.468326129706
 20
1014.261633754339
 30
0.0
 10
1241.468326129706
 20
1014.261633754339
 30
0.0
340
121
1001
ACAD
1000
DSTYLE
1002
{
1070
     5
1000
OPEN30
1070
    77
1070
     1
1070
   147
1040
0.5
1002
}
  0
MTEXT
  5
121
102
{ACAD_REACTORS
330
120
102
}
330
2
100
AcDbEntity
  8
寸法線
  6
Continuous
100
AcDbMText
 10
1246.468326129706
 20
1019.261633754339
 30
0.0
 40
30.0
 41
0.0
 71
     7
 72
     1
  1
6/3\U+00D744
 73
     1
 44
1.0
1001
ACAD
1000
MTEXTBEGIN
1070
    73
1070
     1
1070
    44
1040
1.0
1070
    74
1070
     0
1000
MTEXTEND
  0
LINE
  5
124
330
2
100
AcDbEntity
  8
嵩上断面
  6
Continuous
100
AcDbLine
 10
204.8943726623065
 20
1423.654660416729
 30
0.0
 11
204.8943726623065
 21
1348.654660416729
 31
0.0
  0
LINE
  5
125
330
2
100
AcDbEntity
  8
嵩上断面
  6
Continuous
100
AcDbLine
 10
1194.894372662306
 20
1423.654660416729
 30
0.0
 11
1194.894372662306
 21
1348.654660416729
 31
0.0
  0
LINE
  5
127
330
2
100
AcDbEntity
  8
嵩上断面
  6
Continuous
100
AcDbLine
 10
1194.894372662306
 20
1423.654660416729
 30
0.0
 11
204.8943726623065
 21
1423.654660416729
 31
0.0
  0
LINE
  5
128
330
2
100
AcDbEntity
  8
嵩上断面
  6
HIDDEN
 48
2.0
100
AcDbLine
 10
1194.894372662306
 20
1420.454660416729
 30
0.0
 11
204.8943726623065
 21
1420.454660416729
 31
0.0
  0
LINE
  5
12A
330
2
100
AcDbEntity
  8
嵩上断面
  6
HIDDEN
 48
2.0
100
AcDbLine
 10
1194.894372662306
 20
1351.854660416729
 30
0.0
 11
204.8943726623065
 21
1351.854660416729
 31
0.0
  0
LINE
  5
147
330
2
100
AcDbEntity
  8
本体
  6
Continuous
100
AcDbLine
 10
207.3943726623065
 20
924.8243361689057
 30
0.0
 11
207.3943726623065
 21
872.3243361689055
 31
0.0
  0
LINE
  5
148
330
2
100
AcDbEntity
  8
本体
  6
Continuous
100
AcDbLine
 10
207.3943726623065
 20
866.3243361689055
 30
0.0
 11
207.3943726623065
 21
772.3243361689054
 31
0.0
  0
LINE
  5
1C7
330
2
100
AcDbEntity
  8
本体
  6
Continuous
100
AcDbLine
 10
202.3943726623065
 20
313.8243361689057
 30
0.0
 11
1197.394372662306
 21
313.8243361689057
 31
0.0
  0
LINE
  5
1C8
330
2
100
AcDbEntity
  8
本体
  6
Continuous
100
AcDbLine
 10
202.3943726623065
 20
309.3243361689056
 30
0.0
 11
1197.394372662306
 21
309.3243361689056
 31
0.0
  0
LINE
  5
1CA
330
2
100
AcDbEntity
  8
本体
  6
Continuous
100
AcDbLine
 10
207.3943726623065
 20
313.8243361689057
 30
0.0
 11
207.3943726623065
 21
366.3243361689056
 31
0.0
  0
LINE
  5
1CC
330
2
100
AcDbEntity
  8
本体
  6
Continuous
100
AcDbLine
 10
202.3943726623065
 20
309.3243361689056
 30
0.0
 11
202.3943726623065
 21
929.3243361689057
 31
0.0
  0
INSERT
  5
20C
330
2
100
AcDbEntity
  8
本体
  6
Continuous
100
AcDbBlockReference
  2
TB6
 10
2218.714850642466
 20
1473.654660416729
 30
0.0
 50
270.0
  0
INSERT
  5
215
330
2
100
AcDbEntity
  8
本体
  6
Continuous
100
AcDbBlockReference
  2
TB6
 10
2118.714850642466
 20
1473.654660416729
 30
0.0
 50
270.0
  0
INSERT
  5
216
330
2
100
AcDbEntity
  8
本体
  6
Continuous
100
AcDbBlockReference
  2
TB6
 10
1718.714850642465
 20
1473.654660416729
 30
0.0
 50
270.0
  0
DIMENSION
  5
238
330
2
100
AcDbEntity
  8
寸法線
  6
Continuous
100
AcDbDimension
  2
*D12
 10
1197.394372662306
 20
1633.656143142212
 30
0.0
 11
699.8943726623065
 21
1653.656143142212
 31
0.0
 70
    32
 71
     5
 42
995.0
  3
ISO-25
100
AcDbAlignedDimension
 13
202.3943726623065
 23
1473.654660416729
 33
0.0
 14
1197.394372662306
 24
1473.654660416729
 34
0.0
100
AcDbRotatedDimension
  0
DIMENSION
  5
245
330
2
100
AcDbEntity
  8
寸法線
  6
Continuous
100
AcDbDimension
  2
*D13
 10
1307.394372662306
 20
1473.654660416729
 30
0.0
 11
1287.394372662306
 21
1448.654660416729
 31
0.0
 70
    32
 71
     5
 42
50.0
  3
ISO-25
100
AcDbAlignedDimension
 13
1194.894372662306
 23
1423.654660416729
 33
0.0
 14
1194.894372662306
 24
1473.654660416729
 34
0.0
 50
90.0
100
AcDbRotatedDimension
  0
DIMENSION
  5
254
330
2
100
AcDbEntity
  8
寸法線
  6
Continuous
100
AcDbDimension
  2
*D14
 10
1387.394372662307
 20
1348.654660416729
 30
0.0
 11
1367.394372662306
 21
1411.154660416729
 31
0.0
 70
    32
 71
     5
 42
125.0
  3
ISO-25
100
AcDbAlignedDimension
 13
1194.894372662306
 23
1473.654660416729
 33
0.0
 14
1194.894372662306
 24
1348.654660416729
 34
0.0
 50
90.0
100
AcDbRotatedDimension
  0
INSERT
  5
261
330
2
100
AcDbEntity
  8
エンボス
  6
Continuous
100
AcDbBlockReference
  2
A$C61D83440
 10
202.3943726623065
 20
924.8243361689057
 30
0.0
  0
INSERT
  5
26C
330
2
100
AcDbEntity
  8
エンボス
  6
Continuous
100
AcDbBlockReference
  2
A$C61D83440
 10
202.3943726623065
 20
366.3243361689056
 30
0.0
  0
INSERT
  5
2AD
330
2
100
AcDbEntity
  8
エンボス
  6
Continuous
100
AcDbBlockReference
  2
A$C13EC0CC9
 10
202.3943726623065
 20
866.3243361689055
 30
0.0
  0
INSERT
  5
2CE
330
2
100
AcDbEntity
  8
エンボス
  6
Continuous
100
AcDbBlockReference
  2
A$C61D83440
 10
1192.394372662306
 20
924.8243361689057
 30
0.0
  0
INSERT
  5
2CF
330
2
100
AcDbEntity
  8
エンボス
  6
Continuous
100
AcDbBlockReference
  2
A$C13EC0CC9
 10
1192.394372662306
 20
866.3243361689055
 30
0.0
  0
INSERT
  5
2D0
330
2
100
AcDbEntity
  8
エンボス
  6
Continuous
100
AcDbBlockReference
  2
A$C61D83440
 10
1192.394372662306
 20
366.3243361689056
 30
0.0
  0
INSERT
  5
2D1
330
2
100
AcDbEntity
  8
本体
  6
Continuous
100
AcDbBlockReference
  2
TB6
 10
1818.714850642465
 20
1473.654660416729
 30
0.0
 50
270.0
  0
LINE
  5
2D2
330
2
100
AcDbEntity
  8
本体
  6
Continuous
100
AcDbLine
 10
202.3943726623065
 20
372.3243361689057
 30
0.0
 11
1197.394372662306
 21
372.3243361689057
 31
0.0
  0
LINE
  5
2D3
330
2
100
AcDbEntity
  8
本体
  6
Continuous
100
AcDbLine
 10
202.3943726623065
 20
366.3243361689056
 30
0.0
 11
1197.394372662306
 21
366.3243361689056
 31
0.0
  0
LINE
  5
2D6
330
2
100
AcDbEntity
  8
本体
  6
Continuous
100
AcDbLine
 10
207.3943726623065
 20
466.3243361689056
 30
0.0
 11
207.3943726623065
 21
372.3243361689057
 31
0.0
  0
INSERT
  5
2D7
330
2
100
AcDbEntity
  8
エンボス
  6
Continuous
100
AcDbBlockReference
  2
A$C13EC0CC9
 10
202.3943726623065
 20
466.3243361689056
 30
0.0
  0
INSERT
  5
2F6
330
2
100
AcDbEntity
  8
エンボス
  6
Continuous
100
AcDbBlockReference
  2
A$C13EC0CC9
 10
1192.394372662306
 20
466.3243361689056
 30
0.0
  0
LINE
  5
3C3
330
2
100
AcDbEntity
  8
本体
  6
Continuous
100
AcDbLine
 10
1192.394372662306
 20
313.8243361689057
 30
0.0
 11
1192.394372662306
 21
366.3243361689056
 31
0.0
  0
LINE
  5
3C5
330
2
100
AcDbEntity
  8
本体
  6
Continuous
100
AcDbLine
 10
1197.394372662306
 20
309.3243361689056
 30
0.0
 11
1197.394372662306
 21
929.3243361689057
 31
0.0
  0
LINE
  5
3C6
330
2
100
AcDbEntity
  8
本体
  6
Continuous
100
AcDbLine
 10
1192.394372662306
 20
466.3243361689056
 30
0.0
 11
1192.394372662306
 21
372.3243361689057
 31
0.0
  0
LINE
  5
3CA
330
2
100
AcDbEntity
  8
本体
  6
Continuous
100
AcDbLine
 10
1192.394372662306
 20
866.3243361689055
 30
0.0
 11
1192.394372662306
 21
772.3243361689054
 31
0.0
  0
LINE
  5
3CD
330
2
100
AcDbEntity
  8
本体
  6
Continuous
100
AcDbLine
 10
1192.394372662306
 20
924.8243361689057
 30
0.0
 11
1192.394372662306
 21
872.3243361689055
 31
0.0
  0
LINE
  5
493
330
2
100
AcDbEntity
  8
本体
  6
Continuous
100
AcDbLine
 10
202.3943726623065
 20
366.3243361689056
 30
0.0
 11
217.3943726623065
 21
372.3243361689057
 31
0.0
  0
LINE
  5
514
330
2
100
AcDbEntity
  8
本体
  6
Continuous
100
AcDbLine
 10
1192.394372662306
 20
866.3243361689055
 30
0.0
 11
1197.394372662306
 21
867.3243361689056
 31
0.0
  0
LINE
  5
517
330
2
100
AcDbEntity
  8
本体
  6
Continuous
100
AcDbLine
 10
1192.394372662306
 20
366.3243361689056
 30
0.0
 11
1197.394372662306
 21
367.3243361689056
 31
0.0
  0
LINE
  5
519
330
2
100
AcDbEntity
  8
嵩上断面
  6
Continuous
100
AcDbLine
 10
204.8943726623065
 20
1348.654660416729
 30
0.0
 11
1194.894372662306
 21
1348.654660416729
 31
0.0
  0
LINE
  5
567
330
2
100
AcDbEntity
  8
嵩上平面
  6
HIDDEN
 48
3.0
370
     9
100
AcDbLine
 10
204.8943726623065
 20
919.3243371689057
 30
0.0
 11
1194.894372662306
 21
919.3243371689057
 31
0.0
  0
LINE
  5
568
330
2
100
AcDbEntity
  8
嵩上平面
  6
HIDDEN
 48
3.0
370
     9
100
AcDbLine
 10
204.8943726623065
 20
879.3243371689055
 30
0.0
 11
1194.894372662306
 21
879.3243371689055
 31
0.0
  0
LINE
  5
569
330
2
100
AcDbEntity
  8
嵩上平面
  6
HIDDEN
 48
3.0
370
     9
100
AcDbLine
 10
204.8943726623065
 20
359.3243351689057
 30
0.0
 11
1194.894372662306
 21
359.3243351689057
 31
0.0
  0
LINE
  5
56A
330
2
100
AcDbEntity
  8
嵩上平面
  6
HIDDEN
 48
3.0
370
     9
100
AcDbLine
 10
204.8943726623065
 20
319.3243351689057
 30
0.0
 11
1194.894372662306
 21
319.3243351689057
 31
0.0
  0
LINE
  5
56B
330
2
100
AcDbEntity
  8
嵩上平面
  6
HIDDEN
 48
3.0
370
     9
100
AcDbLine
 10
1194.894372662306
 20
919.3243371689057
 30
0.0
 11
1194.894372662306
 21
879.3243371689055
 31
0.0
  0
LINE
  5
56C
330
2
100
AcDbEntity
  8
嵩上平面
  6
HIDDEN
 48
3.0
370
     9
100
AcDbLine
 10
204.8943726623065
 20
919.3243371689057
 30
0.0
 11
204.8943726623065
 21
879.3243371689055
 31
0.0
  0
LINE
  5
56D
330
2
100
AcDbEntity
  8
嵩上平面
  6
HIDDEN
 48
3.0
370
     9
100
AcDbLine
 10
204.8943726623065
 20
359.3243351689057
 30
0.0
 11
204.8943726623065
 21
319.3243351689057
 31
0.0
  0
LINE
  5
56E
330
2
100
AcDbEntity
  8
嵩上平面
  6
HIDDEN
 48
3.0
370
     9
100
AcDbLine
 10
1194.894372662306
 20
359.3243351689057
 30
0.0
 11
1194.894372662306
 21
319.3243351689057
 31
0.0
  0
MTEXT
  5
6E8
330
2
100
AcDbEntity
  8
外枠
  6
Continuous
 48
100.0
370
     9
100
AcDbMText
 10
1022.193186254242
 20
77.61017986570005
 30
0.0
 40
18.0
 41
122.0406
 71
     1
 72
     5
  1
【主部材】
 73
     1
 44
1.0
1001
ACAD
1000
MTEXTBEGIN
1070
    73
1070
     1
1070
    44
1040
1.0
1070
    74
1070
     0
1000
MTEXTEND
  0
MTEXT
  5
6EA
330
2
100
AcDbEntity
  8
外枠
  6
Continuous
 48
100.0
370
     9
100
AcDbMText
 10
1202.677957061338
 20
120.1377642323778
 30
0.0
 40
25.0
 41
1015.1375
 71
     1
 72
     5
  1
溶融亜鉛めっき仕上
 73
     1
 44
1.0
1001
ACAD
1000
MTEXTBEGIN
1070
    73
1070
     1
1070
    44
1040
1.0
1070
    74
1070
     0
1000
MTEXTEND
  0
MTEXT
  5
6EB
330
2
100
AcDbEntity
  8
外枠
  6
Continuous
 48
100.0
370
     9
100
AcDbMText
 10
1199.761738767627
 20
151.0819879350613
 30
0.0
 40
18.0
 41
301.8661
 71
     1
 72
     5
  1
【グレーチング】JIS　H8641
 73
     1
 44
1.0
1001
ACAD
1000
MTEXTBEGIN
1070
    73
1070
     1
1070
    44
1040
1.0
1070
    74
1070
     0
1000
MTEXTEND
  0
MTEXT
  5
6EC
330
2
100
AcDbEntity
  8
外枠
  6
Continuous
 48
100.0
370
     9
100
AcDbMText
 10
1159.385398923399
 20
148.6111115828462
 30
0.0
 40
20.0
 41
1015.1375
 71
     1
 72
     5
  1
表\P面\P処\P理
 73
     1
 44
1.0
1001
ACAD
1000
MTEXTBEGIN
1070
    73
1070
     1
1070
    44
1040
1.0
1070
    74
1070
     0
1000
MTEXTEND
  0
LINE
  5
6ED
330
2
100
AcDbEntity
  8
外枠
  6
Continuous
 48
100.0
370
     9
100
AcDbLine
 10
1188.531791166651
 20
155.3992728207959
 30
0.0
 11
1188.531791166651
 21
9.999999999992724
 31
0.0
  0
LINE
  5
6EE
330
2
100
AcDbEntity
  8
外枠
  6
Continuous
 48
100.0
370
     9
100
AcDbLine
 10
1153.531306970095
 20
155.3992728207959
 30
0.0
 11
1153.531306970095
 21
9.999999999992724
 31
0.0
  0
LINE
  5
6EF
330
2
100
AcDbEntity
  8
外枠
 48
3.0
100
AcDbLine
 10
1188.531791166651
 20
82.6996364103943
 30
0.0
 11
1593.951336296073
 21
82.6996364103943
 31
0.0
  0
LINE
  5
B77
330
2
100
AcDbEntity
  8
本体
100
AcDbLine
 10
1192.394372662306
 20
1473.654660416729
 30
0.0
 11
1197.394372662306
 21
1473.654660416729
 31
0.0
  0
LINE
  5
B7A
330
2
100
AcDbEntity
  8
本体
100
AcDbLine
 10
1192.394372662306
 20
1473.654660416729
 30
0.0
 11
1192.394372662306
 21
1467.654660416729
 31
0.0
  0
LINE
  5
B7E
330
2
100
AcDbEntity
  8
本体
100
AcDbLine
 10
1197.394372662306
 20
1429.654660416729
 30
0.0
 11
1196.394372662306
 21
1430.654660416729
 31
0.0
  0
LINE
  5
B80
330
2
100
AcDbEntity
  8
本体
100
AcDbLine
 10
1192.394372662306
 20
1429.654660416729
 30
0.0
 11
1193.394372662306
 21
1430.654660416729
 31
0.0
  0
LINE
  5
B88
330
2
100
AcDbEntity
  8
本体
100
AcDbLine
 10
1192.394372662306
 20
1423.654660416729
 30
0.0
 11
1197.394372662306
 21
1423.654660416729
 31
0.0
  0
LINE
  5
B89
330
2
100
AcDbEntity
  8
本体
100
AcDbLine
 10
1197.394372662306
 20
1423.654660416729
 30
0.0
 11
1197.394372662306
 21
1429.654660416729
 31
0.0
  0
LINE
  5
B8D
330
2
100
AcDbEntity
  8
本体
100
AcDbLine
 10
1193.394372662306
 20
1466.654660416729
 30
0.0
 11
1193.394372662306
 21
1430.654660416729
 31
0.0
  0
LINE
  5
B8E
330
2
100
AcDbEntity
  8
本体
100
AcDbLine
 10
1196.394372662306
 20
1466.654660416729
 30
0.0
 11
1196.394372662306
 21
1430.654660416729
 31
0.0
  0
LINE
  5
B90
330
2
100
AcDbEntity
  8
本体
100
AcDbLine
 10
1197.394372662306
 20
1473.654660416729
 30
0.0
 11
1197.394372662306
 21
1467.654660416729
 31
0.0
  0
LINE
  5
B91
330
2
100
AcDbEntity
  8
本体
100
AcDbLine
 10
1197.394372662306
 20
1467.654660416729
 30
0.0
 11
1196.394372662306
 21
1466.654660416729
 31
0.0
  0
LINE
  5
B93
330
2
100
AcDbEntity
  8
本体
100
AcDbLine
 10
1192.394372662306
 20
1467.654660416729
 30
0.0
 11
1193.394372662306
 21
1466.654660416729
 31
0.0
  0
LINE
  5
B97
330
2
100
AcDbEntity
  8
本体
100
AcDbLine
 10
1192.394372662306
 20
1423.654660416729
 30
0.0
 11
1192.394372662306
 21
1429.654660416729
 31
0.0
  0
INSERT
  5
C95
330
2
100
AcDbEntity
  8
本体
 48
3.0
100
AcDbBlockReference
  2
HGIB詳細
 10
2762.513997685368
 20
180.4805899928656
 30
0.0
  0
INSERT
  5
CAE
330
2
100
AcDbEntity
  8
本体
  6
Continuous
100
AcDbBlockReference
  2
TB6
 10
2018.714850642465
 20
1473.654660416729
 30
0.0
 50
270.0
  0
LINE
  5
CB0
330
2
100
AcDbEntity
  8
本体
  6
Continuous
100
AcDbLine
 10
202.3943726623065
 20
766.3243361689056
 30
0.0
 11
1197.394372662306
 21
766.3243361689056
 31
0.0
  0
LINE
  5
CB1
330
2
100
AcDbEntity
  8
本体
  6
Continuous
100
AcDbLine
 10
202.3943726623065
 20
772.3243361689054
 30
0.0
 11
1197.394372662306
 21
772.3243361689054
 31
0.0
  0
INSERT
  5
CBC
330
2
100
AcDbEntity
  8
エンボス
  6
Continuous
100
AcDbBlockReference
  2
A$C13EC0CC9
 10
202.3943726623065
 20
766.3243361689056
 30
0.0
  0
LINE
  5
CBD
330
2
100
AcDbEntity
  8
本体
  6
Continuous
100
AcDbLine
 10
207.3943726623065
 20
766.3243361689056
 30
0.0
 11
207.3943726623065
 21
672.3243361689054
 31
0.0
  0
LINE
  5
CC0
330
2
100
AcDbEntity
  8
本体
  6
Continuous
100
AcDbLine
 10
202.3943726623065
 20
766.3243361689056
 30
0.0
 11
217.3943726623065
 21
772.3243361689054
 31
0.0
  0
LINE
  5
D37
330
2
100
AcDbEntity
  8
本体
  6
Continuous
100
AcDbLine
 10
1192.394372662306
 20
766.3243361689056
 30
0.0
 11
1192.394372662306
 21
672.3243361689054
 31
0.0
  0
INSERT
  5
D38
330
2
100
AcDbEntity
  8
エンボス
  6
Continuous
100
AcDbBlockReference
  2
A$C13EC0CC9
 10
1192.394372662306
 20
766.3243361689056
 30
0.0
  0
LINE
  5
D39
330
2
100
AcDbEntity
  8
本体
  6
Continuous
100
AcDbLine
 10
1192.394372662306
 20
766.3243361689056
 30
0.0
 11
1197.394372662306
 21
767.3243361689054
 31
0.0
  0
DIMENSION
  5
E5A
330
2
100
AcDbEntity
  8
寸法線
 48
3.0
100
AcDbDimension
  2
*D25
 10
1307.394372662306
 20
1423.654660416729
 30
0.0
 11
1287.394372662306
 21
1386.154660416729
 31
0.0
 70
    32
 71
     5
 42
75.0
  3
ISO-25
100
AcDbAlignedDimension
 13
1194.894372662306
 23
1348.654660416729
 33
0.0
 14
1197.394372662306
 24
1423.654660416729
 34
0.0
 50
90.0
100
AcDbRotatedDimension
  0
LINE
  5
FA4
330
2
100
AcDbEntity
  8
本体
  6
Continuous
100
AcDbLine
 10
202.3943726623065
 20
672.3243361689054
 30
0.0
 11
1197.394372662306
 21
672.3243361689054
 31
0.0
  0
LINE
  5
FA5
330
2
100
AcDbEntity
  8
本体
  6
Continuous
100
AcDbLine
 10
202.3943726623065
 20
666.3243361689056
 30
0.0
 11
1197.394372662306
 21
666.3243361689056
 31
0.0
  0
LINE
  5
FA9
330
2
100
AcDbEntity
  8
本体
  6
Continuous
100
AcDbLine
 10
207.3943726623065
 20
666.3243361689056
 30
0.0
 11
207.3943726623065
 21
572.3243361689054
 31
0.0
  0
INSERT
  5
FAA
330
2
100
AcDbEntity
  8
エンボス
  6
Continuous
100
AcDbBlockReference
  2
A$C13EC0CC9
 10
202.3943726623065
 20
666.3243361689056
 30
0.0
  0
LINE
  5
FB5
330
2
100
AcDbEntity
  8
本体
  6
Continuous
100
AcDbLine
 10
202.3943726623065
 20
666.3243361689056
 30
0.0
 11
217.3943726623065
 21
672.3243361689054
 31
0.0
  0
INSERT
  5
102B
330
2
100
AcDbEntity
  8
エンボス
  6
Continuous
100
AcDbBlockReference
  2
A$C13EC0CC9
 10
1192.394372662306
 20
666.3243361689056
 30
0.0
  0
LINE
  5
102C
330
2
100
AcDbEntity
  8
本体
  6
Continuous
100
AcDbLine
 10
1192.394372662306
 20
666.3243361689056
 30
0.0
 11
1192.394372662306
 21
572.3243361689054
 31
0.0
  0
LINE
  5
102F
330
2
100
AcDbEntity
  8
本体
  6
Continuous
100
AcDbLine
 10
1192.394372662306
 20
666.3243361689056
 30
0.0
 11
1197.394372662306
 21
667.3243361689054
 31
0.0
  0
LINE
  5
1031
330
2
100
AcDbEntity
  8
本体
  6
Continuous
100
AcDbLine
 10
202.3943726623065
 20
566.3243361689056
 30
0.0
 11
1197.394372662306
 21
566.3243361689056
 31
0.0
  0
LINE
  5
1032
330
2
100
AcDbEntity
  8
本体
  6
Continuous
100
AcDbLine
 10
202.3943726623065
 20
572.3243361689054
 30
0.0
 11
1197.394372662306
 21
572.3243361689054
 31
0.0
  0
INSERT
  5
103D
330
2
100
AcDbEntity
  8
エンボス
  6
Continuous
100
AcDbBlockReference
  2
A$C13EC0CC9
 10
202.3943726623065
 20
566.3243361689056
 30
0.0
  0
LINE
  5
103E
330
2
100
AcDbEntity
  8
本体
  6
Continuous
100
AcDbLine
 10
207.3943726623065
 20
566.3243361689056
 30
0.0
 11
207.3943726623065
 21
472.3243361689054
 31
0.0
  0
LINE
  5
1041
330
2
100
AcDbEntity
  8
本体
  6
Continuous
100
AcDbLine
 10
202.3943726623065
 20
566.3243361689056
 30
0.0
 11
217.3943726623065
 21
572.3243361689054
 31
0.0
  0
LINE
  5
10B8
330
2
100
AcDbEntity
  8
本体
  6
Continuous
100
AcDbLine
 10
1192.394372662306
 20
566.3243361689056
 30
0.0
 11
1192.394372662306
 21
472.3243361689054
 31
0.0
  0
INSERT
  5
10B9
330
2
100
AcDbEntity
  8
エンボス
  6
Continuous
100
AcDbBlockReference
  2
A$C13EC0CC9
 10
1192.394372662306
 20
566.3243361689056
 30
0.0
  0
LINE
  5
10BA
330
2
100
AcDbEntity
  8
本体
  6
Continuous
100
AcDbLine
 10
1192.394372662306
 20
566.3243361689056
 30
0.0
 11
1197.394372662306
 21
567.3243361689054
 31
0.0
  0
LINE
  5
10BC
330
2
100
AcDbEntity
  8
本体
  6
Continuous
100
AcDbLine
 10
202.3943726623065
 20
472.3243361689054
 30
0.0
 11
1197.394372662306
 21
472.3243361689054
 31
0.0
  0
LINE
  5
10BD
330
2
100
AcDbEntity
  8
本体
  6
Continuous
100
AcDbLine
 10
202.3943726623065
 20
466.3243361689056
 30
0.0
 11
1197.394372662306
 21
466.3243361689056
 31
0.0
  0
LINE
  5
10C2
330
2
100
AcDbEntity
  8
本体
  6
Continuous
100
AcDbLine
 10
202.3943726623065
 20
466.3243361689056
 30
0.0
 11
217.3943726623065
 21
472.3243361689054
 31
0.0
  0
LINE
  5
10E1
330
2
100
AcDbEntity
  8
本体
  6
Continuous
100
AcDbLine
 10
1192.394372662306
 20
466.3243361689056
 30
0.0
 11
1197.394372662306
 21
467.3243361689054
 31
0.0
  0
INSERT
  5
11D2
330
2
100
AcDbEntity
  8
本体
  6
Continuous
100
AcDbBlockReference
  2
TB6
 10
1918.714850642465
 20
1473.654660416729
 30
0.0
 50
270.0
  0
MTEXT
  5
11E9
330
2
100
AcDbEntity
  8
外枠
  6
Continuous
 48
100.0
370
     9
100
AcDbMText
 10
2509.985545378613
 20
121.2206105686568
 30
0.0
 40
23.47884
 41
274.1381
 71
     1
 72
     5
  1
'14・09・01
 73
     1
 44
1.0
1001
ACAD
1000
MTEXTBEGIN
1070
    73
1070
     1
1070
    44
1040
1.0
1070
    74
1070
     0
1000
MTEXTEND
  0
MTEXT
  5
11EA
330
2
100
AcDbEntity
  8
外枠
  6
Continuous
 48
100.0
370
     9
100
AcDbMText
 10
1038.975343934131
 20
43.78169995529471
 30
0.0
 40
25.0
 41
122.0406
 71
     1
 72
     5
  1
SS540
 73
     1
 44
1.0
1001
ACAD
1000
MTEXTBEGIN
1070
    73
1070
     1
1070
    44
1040
1.0
1070
    74
1070
     0
1000
MTEXTEND
  0
INSERT
  5
12D1
330
2
100
AcDbEntity
  8
寸法線
 48
3.0
100
AcDbBlockReference
  2
清水
 10
2387.385592047314
 20
155.3992728207995
 30
0.0
  0
MTEXT
  5
13B9
330
2
100
AcDbEntity
  8
外枠
  6
Continuous
 48
100.0
370
     9
100
AcDbMText
 10
68.71749881764571
 20
68.10341556315714
 30
0.0
 40
35.0
 41
88.86979999999999
 71
     1
 72
     5
  1
VNFJ
 73
     1
 44
1.0
1001
ACAD
1000
MTEXTBEGIN
1070
    73
1070
     1
1070
    44
1040
1.0
1070
    74
1070
     0
1000
MTEXTEND
  0
MTEXT
  5
13BA
330
2
100
AcDbEntity
  8
外枠
  6
Continuous
 48
100.0
370
     9
100
AcDbMText
 10
513.3957806683882
 20
136.1535564242144
 30
0.0
 40
23.0
 41
655.2993456750336
 71
     1
 72
     5
  1
LSハイテンJIS道路側溝用レボ細目グレーチング
 73
     1
 44
1.0
1001
ACAD
1000
MTEXTBEGIN
1070
    73
1070
     1
1070
    44
1040
1.0
1070
    74
1070
     0
1000
MTEXTEND
  0
INSERT
  5
13BB
330
2
100
AcDbEntity
  8
本体
 48
3.0
100
AcDbBlockReference
  2
GFB新
 10
2774.219625023061
 20
472.8682320028866
 30
0.0
  0
INSERT
  5
13BC
330
2
100
AcDbEntity
  8
外枠
 48
3.0
100
AcDbBlockReference
  2
鎌下
 10
2271.730765417811
 20
155.3992728207995
 30
0.0
  0
DIMENSION
  5
19CC
330
2
100
AcDbEntity
  8
寸法線
  6
Continuous
100
AcDbDimension
  2
*D31
 10
969.8943726623063
 20
1553.654660416729
 30
0.0
 11
1021.341073169921
 21
1573.654660416729
 31
0.0
 70
    32
 71
     5
 42
15.0
  3
ISO-25
100
AcDbAlignedDimension
 13
954.8943726623063
 23
1478.783895011278
 33
0.0
 14
969.8943726623063
 24
1478.783895011278
 34
0.0
100
AcDbRotatedDimension
  0
LINE
  5
19CD
330
2
100
AcDbEntity
  8
中心線
  6
CENTER
100
AcDbLine
 10
954.8943726623063
 20
1478.783895011278
 30
0.0
 11
954.8943726623063
 21
1433.654660416729
 31
0.0
  0
LINE
  5
19CE
330
2
100
AcDbEntity
  8
中心線
  6
CENTER
100
AcDbLine
 10
969.8943726623063
 20
1478.783895011278
 30
0.0
 11
969.8943726623063
 21
1433.654660416729
 31
0.0
  0
LEADER
  5
21CA
330
2
100
AcDbEntity
  8
寸法線
  6
Continuous
100
AcDbLeader
  3
ISO-25
 73
     0
 74
     0
 75
     1
 40
30.0
 41
152.1319796954314
 76
     3
 10
1178.363391968881
 20
616.23288606719
 30
0.0
 10
1235.978883738448
 20
731.9852202481529
 30
0.0
 10
1250.978883738448
 20
731.9852202481529
 30
0.0
340
21CB
1001
ACAD
1000
DSTYLE
1002
{
1070
     5
1000
OPEN30
1070
    77
1070
     1
1070
   147
1040
0.5
1070
   342
1005
DF
1002
}
  0
MTEXT
  5
21CB
102
{ACAD_REACTORS
330
21CA
102
}
330
2
100
AcDbEntity
  8
寸法線
  6
Continuous
100
AcDbMText
 10
1255.978883738448
 20
736.9852202481529
 30
0.0
 40
30.0
 41
0.0
 71
     7
 72
     1
  1
GFB5\U+00D713
 73
     1
 44
1.0
1001
ACAD
1000
MTEXTBEGIN
1070
    73
1070
     1
1070
    44
1040
1.0
1070
    74
1070
     0
1000
MTEXTEND
  0
LINE
  5
28AA
330
2
100
AcDbEntity
  8
嵩上断面
100
AcDbLine
 10
2268.714852642466
 20
1420.654663416729
 30
0.0
 11
2268.714852642466
 21
1351.654663416729
 31
0.0
  0
LINE
  5
28AB
330
2
100
AcDbEntity
  8
嵩上断面
100
AcDbLine
 10
2265.714852642466
 20
1423.654663416729
 30
0.0
 11
2231.714852642467
 21
1423.654663416729
 31
0.0
  0
LINE
  5
28AC
330
2
100
AcDbEntity
  8
嵩上断面
100
AcDbLine
 10
2228.714852642466
 20
1420.654663416729
 30
0.0
 11
2228.714852642466
 21
1351.654663416729
 31
0.0
  0
ARC
  5
28AD
330
2
100
AcDbEntity
  8
嵩上断面
100
AcDbCircle
 10
2231.714852642467
 20
1420.654663416729
 30
0.0
 40
3.0
100
AcDbArc
 50
90.0
 51
180.0
  0
ARC
  5
28AE
330
2
100
AcDbEntity
  8
嵩上断面
100
AcDbCircle
 10
2265.714852642466
 20
1420.654663416729
 30
0.0
 40
3.0
100
AcDbArc
 50
0.0
 51
90.0
  0
LINE
  5
28AF
330
2
100
AcDbEntity
  8
嵩上断面
100
AcDbLine
 10
2231.714852642467
 20
1348.654663416729
 30
0.0
 11
2265.714852642466
 21
1348.654663416729
 31
0.0
  0
ARC
  5
28B0
330
2
100
AcDbEntity
  8
嵩上断面
100
AcDbCircle
 10
2265.714852642466
 20
1351.654663416729
 30
0.0
 40
3.0
100
AcDbArc
 50
270.0
 51
0.0
  0
ARC
  5
28B1
330
2
100
AcDbEntity
  8
嵩上断面
100
AcDbCircle
 10
2231.714852642467
 20
1351.654663416729
 30
0.0
 40
3.0
100
AcDbArc
 50
180.0
 51
270.0
  0
LWPOLYLINE
  5
28B2
330
2
100
AcDbEntity
  8
嵩上断面
  6
Continuous
100
AcDbPolyline
 90
        4
 70
     1
 43
0.0
 10
2231.014852642466
 20
1421.354663416729
 10
2231.014852642466
 20
1350.954663416729
 10
2266.414852642466
 20
1350.954663416729
 10
2266.414852642466
 20
1421.354663416729
  0
LINE
  5
28B4
330
2
100
AcDbEntity
  8
嵩上断面
100
AcDbLine
 10
1668.714848642465
 20
1420.654663416729
 30
0.0
 11
1668.714848642465
 21
1351.654663416729
 31
0.0
  0
LINE
  5
28B5
330
2
100
AcDbEntity
  8
嵩上断面
100
AcDbLine
 10
1671.714848642465
 20
1423.654663416729
 30
0.0
 11
1705.714848642465
 21
1423.654663416729
 31
0.0
  0
LINE
  5
28B6
330
2
100
AcDbEntity
  8
嵩上断面
100
AcDbLine
 10
1708.714848642465
 20
1420.654663416729
 30
0.0
 11
1708.714848642465
 21
1351.654663416729
 31
0.0
  0
ARC
  5
28B7
330
2
100
AcDbEntity
  8
嵩上断面
100
AcDbCircle
 10
1705.714848642465
 20
1420.654663416729
 30
0.0
 40
3.0
100
AcDbArc
 50
0.0
 51
90.0
  0
ARC
  5
28B8
330
2
100
AcDbEntity
  8
嵩上断面
100
AcDbCircle
 10
1671.714848642465
 20
1420.654663416729
 30
0.0
 40
3.0
100
AcDbArc
 50
90.0
 51
180.0
  0
LINE
  5
28B9
330
2
100
AcDbEntity
  8
嵩上断面
100
AcDbLine
 10
1705.714848642465
 20
1348.65466341673
 30
0.0
 11
1671.714848642465
 21
1348.65466341673
 31
0.0
  0
ARC
  5
28BA
330
2
100
AcDbEntity
  8
嵩上断面
100
AcDbCircle
 10
1671.714848642465
 20
1351.654663416729
 30
0.0
 40
3.0
100
AcDbArc
 50
180.0
 51
270.0
  0
ARC
  5
28BB
330
2
100
AcDbEntity
  8
嵩上断面
100
AcDbCircle
 10
1705.714848642465
 20
1351.654663416729
 30
0.0
 40
3.0
100
AcDbArc
 50
270.0
 51
0.0
  0
LWPOLYLINE
  5
28BC
330
2
100
AcDbEntity
  8
嵩上断面
  6
Continuous
100
AcDbPolyline
 90
        4
 70
     1
 43
0.0
 10
1706.414848642465
 20
1421.354663416729
 10
1706.414848642465
 20
1350.954663416729
 10
1671.014848642465
 20
1350.954663416729
 10
1671.014848642465
 20
1421.354663416729
  0
DIMENSION
  5
29DB
330
2
100
AcDbEntity
  8
寸法線
  6
Continuous
100
AcDbDimension
  2
*D33
 10
1194.894372662306
 20
1168.654660416729
 30
0.0
 11
699.8943726623065
 21
1168.654660416729
 31
0.0
 70
   160
 71
     5
 42
989.9999999999991
  3
ISO-25
100
AcDbAlignedDimension
 13
204.8943726623065
 23
1348.654660416729
 33
0.0
 14
1194.894372662306
 24
1348.654660416729
 34
0.0
100
AcDbRotatedDimension
  0
LEADER
  5
29DC
330
2
100
AcDbEntity
  8
寸法線
  6
Continuous
100
AcDbLeader
  3
ISO-25
 73
     0
 74
     0
 75
     1
 40
30.0
 41
230.2538071065989
 76
     3
 10
552.8982841863806
 20
1348.654660416729
 30
0.0
 10
574.7686366216976
 20
1269.568366000485
 30
0.0
 10
589.7686366216976
 20
1269.568366000485
 30
0.0
340
29DD
1001
ACAD
1000
DSTYLE
1002
{
1070
     5
1000
OPEN30
1070
    77
1070
     1
1070
   147
1040
0.5
1070
   342
1005
DF
1002
}
  0
MTEXT
  5
29DD
102
{ACAD_REACTORS
330
29DC
102
}
330
2
100
AcDbEntity
  8
寸法線
  6
Continuous
100
AcDbMText
 10
594.7686366216976
 20
1289.568366000485
 30
0.0
 40
30.0
 41
0.0
 71
     4
 72
     1
  1
P2.3\U+00D775\U+00D740
 73
     1
 44
1.0
1001
ACAD
1000
MTEXTBEGIN
1070
    73
1070
     1
1070
    44
1040
1.0
1070
    74
1070
     0
1000
MTEXTEND
  0
MTEXT
  5
29F9
330
2
100
AcDbEntity
  8
寸法線
  6
Continuous
100
AcDbMText
 10
1255.850373961992
 20
814.7577136726486
 30
0.0
 40
30.0
 41
0.0
 71
     7
 72
     1
  1
(SS540)
 73
     1
 44
1.0
1001
ACAD
1000
MTEXTBEGIN
1070
    73
1070
     1
1070
    44
1040
1.0
1070
    74
1070
     0
1000
MTEXTEND
  0
LINE
  5
2A13
330
2
100
AcDbEntity
  8
本体
 48
3.0
100
AcDbLine
 10
1623.714850642467
 20
593.981714047099
 30
0.0
 11
2313.714850642468
 21
593.9817140471135
 31
0.0
  0
LINE
  5
2A14
330
2
100
AcDbEntity
  8
本体
 48
3.0
100
AcDbLine
 10
1623.714850642467
 20
653.9817140470987
 30
0.0
 11
2313.714850642468
 21
653.9817140471138
 31
0.0
  0
LINE
  5
2A15
330
2
100
AcDbEntity
  8
本体
 48
3.0
100
AcDbLine
 10
1623.714850642467
 20
653.9817140470987
 30
0.0
 11
1623.714850642467
 21
593.981714047099
 31
0.0
  0
LINE
  5
2A16
330
2
100
AcDbEntity
  8
本体
 48
3.0
100
AcDbLine
 10
2068.714850642468
 20
653.9817140470987
 30
0.0
 11
2068.714850642468
 21
593.981714047099
 31
0.0
  0
MTEXT
  5
2A17
330
2
100
AcDbEntity
  8
外枠
  6
Continuous
 48
100.0
370
     9
100
AcDbMText
 10
1935.740040541899
 20
635.6466292227857
 30
0.0
 40
25.0
 41
100.7596122118877
 71
     1
 72
     5
  1
SS540
 73
     1
 44
1.0
1001
ACAD
1000
MTEXTBEGIN
1070
    73
1070
     1
1070
    44
1040
1.0
1070
    74
1070
     0
1000
MTEXTEND
  0
LINE
  5
2A18
330
2
100
AcDbEntity
  8
本体
 48
3.0
100
AcDbLine
 10
1783.714850642509
 20
653.9817140471138
 30
0.0
 11
1783.714850642509
 21
593.981714047099
 31
0.0
  0
MTEXT
  5
2A19
330
2
100
AcDbEntity
  8
外枠
  6
Continuous
 48
100.0
370
     9
100
AcDbMText
 10
1655.551744994514
 20
638.1214172632467
 30
0.0
 40
25.0
 41
109.2913512849802
 71
     1
 72
     5
  1
主部材
 73
     1
 44
1.0
1001
ACAD
1000
MTEXTBEGIN
1070
    73
1070
     1
1070
    44
1040
1.0
1070
    74
1070
     0
1000
MTEXTEND
  0
MTEXT
  5
2A1A
330
2
100
AcDbEntity
  8
外枠
  6
Continuous
 48
100.0
370
     9
100
AcDbMText
 10
1795.770349774578
 20
638.1214172632467
 30
0.0
 40
25.0
 41
207.8885004816141
 71
     1
 72
     5
  1
ﾊｲﾃﾝ鋼
 73
     1
 44
1.0
1001
ACAD
1000
MTEXTBEGIN
1070
    73
1070
     1
1070
    44
1040
1.0
1070
    74
1070
     0
1000
MTEXTEND
  0
MTEXT
  5
2A1B
330
2
100
AcDbEntity
  8
外枠
  6
Continuous
 48
100.0
370
     9
100
AcDbMText
 10
1921.099907134204
 20
698.1214172632612
 30
0.0
 40
25.0
 41
1015.1375
 71
     1
 72
     5
  1
材料表
 73
     1
 44
1.0
1001
ACAD
1000
MTEXTBEGIN
1070
    73
1070
     1
1070
    44
1040
1.0
1070
    74
1070
     0
1000
MTEXTEND
  0
LINE
  5
2A1C
330
2
100
AcDbEntity
  8
本体
 48
3.0
100
AcDbLine
 10
1908.714850642466
 20
653.9817140471138
 30
0.0
 11
1908.714850642466
 21
593.981714047099
 31
0.0
  0
LINE
  5
2A1D
330
2
100
AcDbEntity
  8
本体
 48
3.0
100
AcDbLine
 10
2313.714850642468
 20
653.9817140470987
 30
0.0
 11
2313.714850642468
 21
593.981714047099
 31
0.0
  0
MTEXT
  5
2A1E
330
2
100
AcDbEntity
  8
外枠
  6
Continuous
 48
100.0
370
     9
100
AcDbMText
 10
2080.593578799198
 20
635.6466292227805
 30
0.0
 40
25.0
 41
237.5565498464996
 71
     1
 72
     5
  1
HGIB5\U+00D73\U+00D750
 73
     1
 44
1.0
1001
ACAD
1000
MTEXTBEGIN
1070
    73
1070
     1
1070
    44
1040
1.0
1070
    74
1070
     0
1000
MTEXTEND
  0
LINE
  5
2A1F
330
2
100
AcDbEntity
  8
外枠
 48
3.0
100
AcDbLine
 10
1679.54254344874
 20
768.4324096870839
 30
0.0
 11
2257.887157836191
 21
768.4324096870839
 31
0.0
  0
MTEXT
  5
2A24
330
2
100
AcDbEntity
  8
外枠
  6
Continuous
 48
100.0
370
     9
100
AcDbMText
 10
1873.105711096208
 20
804.9688796113329
 30
0.0
 40
30.0
 41
299.6031884460488
 71
     1
 72
     5
  1
\A1;VNFJ50-50A
 73
     1
 44
1.0
1001
ACAD
1000
MTEXTBEGIN
1070
    73
1070
     1
1070
    44
1040
1.0
1070
    74
1070
     0
1000
MTEXTEND
  0
MTEXT
  5
2A25
330
2
100
AcDbEntity
  8
外枠
  6
Continuous
 48
100.0
370
     9
100
AcDbMText
 10
1686.730002993211
 20
855.6020116467113
 30
0.0
 40
26.0
 41
588.9064028521779
 71
     1
 72
     5
  1
ハイテン鋼製グレーチング T-14 細目
 73
     1
 44
1.0
1001
ACAD
1000
MTEXTBEGIN
1070
    73
1070
     1
1070
    44
1040
1.0
1070
    74
1070
     0
1000
MTEXTEND
  0
LINE
  5
2A26
330
2
100
AcDbEntity
  8
外枠
 48
3.0
100
AcDbLine
 10
1679.94122854836
 20
818.4324096870836
 30
0.0
 11
2257.887157836192
 21
818.4324096870836
 31
0.0
  0
INSERT
  5
2AF3
102
{ACAD_REACTORS
330
2B2C
102
}
330
2
100
AcDbEntity
  8
寸法線
100
AcDbBlockReference
  2
*U35
 10
217.3943726623066
 20
1448.654660416729
 30
0.0
  0
INSERT
  5
2B57
102
{ACAD_REACTORS
330
2B7A
102
}
330
2
100
AcDbEntity
  8
寸法線
100
AcDbBlockReference
  2
*U37
 10
224.8943726623065
 20
619.3243361689057
 30
0.0
  0
ENDSEC
  0
SECTION
  2
OBJECTS
  0
DICTIONARY
  5
7
330
0
100
AcDbDictionary
281
     1
  3
ACAD_ASSOCNETWORK
350
2B24
  3
ACAD_CIP_PREVIOUS_PRODUCT_INFO
350
1330
  3
ACAD_COLOR
350
130E
  3
ACAD_DETAILVIEWSTYLE
350
1327
  3
ACAD_GROUP
350
55F
  3
ACAD_LAYOUT
350
545
  3
ACAD_MATERIAL
350
12DC
  3
ACAD_MLEADERSTYLE
350
1323
  3
ACAD_MLINESTYLE
350
560
  3
ACAD_PLOTSETTINGS
350
561
  3
ACAD_PLOTSTYLENAME
350
6
  3
ACAD_SCALELIST
350
1311
  3
ACAD_SECTIONVIEWSTYLE
350
1325
  3
ACAD_TABLESTYLE
350
130F
  3
ACAD_VISUALSTYLE
350
12F5
  3
ACDB_RECOMPOSE_DATA
350
2BC0
  3
AcDbVariableDictionary
350
1412
  3
DWGPROPS
350
2BC1
  0
DICTIONARY
  5
1A23
330
55A
100
AcDbDictionary
280
     1
281
     1
  0
DICTIONARY
  5
13AE
330
552
100
AcDbDictionary
280
     1
281
     1
  3
ACAD_LAYERSTATES
360
13AF
  0
DICTIONARY
  5
1331
330
64
100
AcDbDictionary
280
     1
281
     1
  3
ADSK_XREC_LAYER_RECONCILED
360
1332
  0
DICTIONARY
  5
1333
330
6A
100
AcDbDictionary
280
     1
281
     1
  3
ADSK_XREC_LAYER_RECONCILED
360
1334
  0
DICTIONARY
  5
1335
330
4
100
AcDbDictionary
280
     1
281
     1
  3
ADSK_XREC_LAYER_RECONCILED
360
1336
  0
DICTIONARY
  5
1339
330
67
100
AcDbDictionary
280
     1
281
     1
  3
ADSK_XREC_LAYER_RECONCILED
360
133A
  0
DICTIONARY
  5
133B
330
11
100
AcDbDictionary
280
     1
281
     1
  3
ADSK_XREC_LAYER_RECONCILED
360
133C
  0
DICTIONARY
  5
1341
330
1269
100
AcDbDictionary
280
     1
281
     1
  3
ADSK_XREC_LAYER_RECONCILED
360
1342
  0
DICTIONARY
  5
1343
330
126E
100
AcDbDictionary
280
     1
281
     1
  3
ADSK_XREC_LAYER_RECONCILED
360
1344
  0
DICTIONARY
  5
19C3
330
19C2
100
AcDbDictionary
280
     1
281
     1
  0
DICTIONARY
  5
540
330
2
100
AcDbDictionary
280
     1
281
     1
  3
ACAD_ASSOCNETWORK
360
2B22
  3
ACAD_LAYOUTSELFREF
360
541
  3
ACAD_SORTENTS
360
28B3
  0
DICTIONARY
  5
547
330
546
100
AcDbDictionary
280
     1
281
     1
  3
ACAD_LAYOUTSELFREF
360
548
  0
DICTIONARY
  5
54D
330
54C
100
AcDbDictionary
280
     1
281
     1
  3
ACAD_LAYOUTSELFREF
360
54E
  0
DICTIONARY
  5
139A
330
1399
100
AcDbDictionary
280
     1
281
     1
  0
DICTIONARY
  5
13A8
330
13A7
100
AcDbDictionary
280
     1
281
     1
  0
DICTIONARY
  5
2BFF
330
2AF0
100
AcDbDictionary
280
     1
281
     1
  3
AcDbBlockTableRecordData
360
2C00
  0
DICTIONARY
  5
2C02
330
2B54
100
AcDbDictionary
280
     1
281
     1
  3
AcDbBlockTableRecordData
360
2C03
  0
DICTIONARY
  5
2B24
102
{ACAD_REACTORS
330
7
102
}
330
7
100
AcDbDictionary
281
     1
  3
ACAD_ASSOCNETWORK
350
2B25
  0
XRECORD
  5
1330
102
{ACAD_REACTORS
330
7
102
}
330
7
100
AcDbXrecord
280
     1
300
ACDLT
300
2014
300
ACDLT_F_S
  0
DICTIONARY
  5
130E
102
{ACAD_REACTORS
330
7
102
}
330
7
100
AcDbDictionary
281
     1
  0
DICTIONARY
  5
1327
102
{ACAD_REACTORS
330
7
102
}
330
7
100
AcDbDictionary
281
     1
  3
Metric50
350
1328
  0
DICTIONARY
  5
55F
102
{ACAD_REACTORS
330
7
102
}
330
7
100
AcDbDictionary
281
     1
  0
DICTIONARY
  5
545
102
{ACAD_REACTORS
330
7
102
}
330
7
100
AcDbDictionary
281
     1
  3
Layout1
350
54B
  3
Layout2
350
551
  3
Model
350
544
  0
DICTIONARY
  5
12DC
102
{ACAD_REACTORS
330
7
102
}
330
7
100
AcDbDictionary
281
     1
  3
ByBlock
350
12E5
  3
ByLayer
350
12DD
  3
Global
350
12ED
  0
DICTIONARY
  5
1323
102
{ACAD_REACTORS
330
7
102
}
330
7
100
AcDbDictionary
281
     1
  3
Standard
350
1324
  0
DICTIONARY
  5
560
102
{ACAD_REACTORS
330
7
102
}
330
7
100
AcDbDictionary
281
     1
  3
Standard
350
562
  0
DICTIONARY
  5
561
102
{ACAD_REACTORS
330
7
102
}
330
7
100
AcDbDictionary
281
     1
  0
ACDBDICTIONARYWDFLT
  5
6
102
{ACAD_REACTORS
330
7
102
}
330
7
100
AcDbDictionary
281
     1
  3
Normal
350
5
100
AcDbDictionaryWithDefault
340
5
  0
DICTIONARY
  5
1311
102
{ACAD_REACTORS
330
7
102
}
330
7
100
AcDbDictionary
281
     1
  3
A0
350
1312
  3
A1
350
1313
  3
A2
350
1314
  3
A3
350
1315
  3
A4
350
1316
  3
A5
350
1317
  3
A6
350
1318
  3
A7
350
1319
  3
A8
350
131A
  3
A9
350
131B
  3
B0
350
131C
  3
B1
350
131D
  3
B2
350
131E
  3
B3
350
131F
  3
B4
350
1320
  3
B5
350
1321
  3
B6
350
1322
  0
DICTIONARY
  5
1325
102
{ACAD_REACTORS
330
7
102
}
330
7
100
AcDbDictionary
281
     1
  3
Metric50
350
1326
  0
DICTIONARY
  5
130F
102
{ACAD_REACTORS
330
7
102
}
330
7
100
AcDbDictionary
281
     1
  3
Standard
350
1310
  0
DICTIONARY
  5
12F5
102
{ACAD_REACTORS
330
7
102
}
330
7
100
AcDbDictionary
281
     1
  3
2dWireframe
350
12FB
  3
Basic
350
12FA
  3
Brighten
350
1301
  3
ColorChange
350
1305
  3
Conceptual
350
12FE
  3
Dim
350
1300
  3
EdgeColorOff
350
130D
  3
Facepattern
350
1304
  3
Flat
350
12F6
  3
FlatWithEdges
350
12F7
  3
Gouraud
350
12F8
  3
GouraudWithEdges
350
12F9
  3
Hidden
350
12FD
  3
JitterOff
350
130B
  3
Linepattern
350
1303
  3
OverhangOff
350
130C
  3
Realistic
350
12FF
  3
Shaded
350
130A
  3
Shaded with edges
350
1309
  3
Shades of Gray
350
1306
  3
Sketchy
350
1307
  3
Thicken
350
1302
  3
Wireframe
350
12FC
  3
X-Ray
350
1308
  0
XRECORD
  5
2BC0
102
{ACAD_REACTORS
330
7
102
}
330
7
100
AcDbXrecord
280
     1
 90
        1
330
1310
  0
DICTIONARY
  5
1412
102
{ACAD_REACTORS
330
7
102
}
330
7
100
AcDbDictionary
281
     1
  3
CANNOSCALE
350
1A67
  3
CMLEADERSTYLE
350
1A64
  3
CTABLESTYLE
350
1A63
  3
CVIEWDETAILSTYLE
350
1A65
  3
CVIEWSECTIONSTYLE
350
1A66
  3
DIMASSOC
350
1A6A
  3
INDEXCTL
350
1A69
  3
SORTENTS
350
1A68
  3
XCLIPFRAME
350
2BBE
  0
XRECORD
  5
2BC1
102
{ACAD_REACTORS
330
7
102
}
330
7
100
AcDbXrecord
280
     1
  1
DWGPROPS COOKIE
  2

  3

  4

  6

  7

  8
TAKARA
  9

300
=
301
=
302
=
303
=
304
=
305
=
306
=
307
=
308
=
309
=
 40
0.1235373842592593
 41
2453510.558637211
 42
2457529.725957731
  1

 90
        0
  0
DICTIONARY
  5
13AF
102
{ACAD_REACTORS
330
13AE
102
}
330
13AE
100
AcDbDictionary
281
     1
  0
XRECORD
  5
1332
102
{ACAD_REACTORS
330
1331
102
}
330
1331
100
AcDbXrecord
280
     1
290
     1
  0
XRECORD
  5
1334
102
{ACAD_REACTORS
330
1333
102
}
330
1333
100
AcDbXrecord
280
     1
290
     1
  0
XRECORD
  5
1336
102
{ACAD_REACTORS
330
1335
102
}
330
1335
100
AcDbXrecord
280
     1
290
     1
  0
XRECORD
  5
133A
102
{ACAD_REACTORS
330
1339
102
}
330
1339
100
AcDbXrecord
280
     1
290
     1
  0
XRECORD
  5
133C
102
{ACAD_REACTORS
330
133B
102
}
330
133B
100
AcDbXrecord
280
     1
290
     1
  0
XRECORD
  5
1342
102
{ACAD_REACTORS
330
1341
102
}
330
1341
100
AcDbXrecord
280
     1
290
     1
  0
XRECORD
  5
1344
102
{ACAD_REACTORS
330
1343
102
}
330
1343
100
AcDbXrecord
280
     1
290
     1
  0
DICTIONARY
  5
2B22
102
{ACAD_REACTORS
330
540
102
}
330
540
100
AcDbDictionary
281
     1
  3
ACAD_ASSOCNETWORK
350
2B23
  0
XRECORD
  5
541
102
{ACAD_REACTORS
330
540
102
}
330
540
100
AcDbXrecord
280
     1
340
2
  0
SORTENTSTABLE
  5
28B3
102
{ACAD_REACTORS
330
540
102
}
330
540
100
AcDbSortentsTable
330
2
331
10BD
  5
12D1
331
10BC
  5
11EA
331
10BA
  5
11D2
331
10B9
  5
11A9
331
10B8
  5
10E1
331
19CE
  5
19F0
331
19CD
  5
19EF
331
19CC
  5
19EE
331
12A
  5
12A
331
2F
  5
2F
331
128
  5
128
331
216
  5
216
331
2C
  5
2C
331
215
  5
215
331
2B
  5
2B
331
2A
  5
2A
331
29
  5
29
331
62
  5
62
331
61
  5
61
331
28
  5
28
331
60
  5
60
331
AF
  5
AF
331
AE
  5
AE
331
AC
  5
AC
331
AB
  5
AB
331
12D1
  5
13CD
331
13BC
  5
19CD
331
13BB
  5
19CC
331
C95
  5
C95
331
13BA
  5
13CF
331
13B9
  5
13CE
331
261
  5
261
331
20C
  5
20C
331
11D2
  5
13CA
331
26C
  5
26C
331
CAE
  5
CAE
331
21CB
  5
2312
331
21CA
  5
2311
331
148
  5
148
331
254
  5
254
331
E7
  5
E7
331
106
  5
106
331
E5
  5
E5
331
238
  5
238
331
245
  5
245
331
E5A
  5
E5A
331
113
  5
113
331
17
  5
17
331
F9
  5
F9
331
14
  5
14
331
13
  5
13
331
12
  5
12
331
DE
  5
DE
331
DC
  5
DC
331
DB
  5
DB
331
5F
  5
5F
331
D9
  5
D9
331
5E
  5
5E
331
4F
  5
4F
331
D8
  5
D8
331
5D
  5
5D
331
4E
  5
4E
331
3F
  5
3F
331
BB
  5
BB
331
5C
  5
5C
331
4D
  5
4D
331
3E
  5
3E
331
27
  5
27
331
127
  5
127
331
C9
  5
C9
331
BA
  5
BA
331
5B
  5
5B
331
4C
  5
4C
331
3D
  5
3D
331
26
  5
26
331
E8
  5
E8
331
D7
  5
D7
331
5A
  5
5A
331
4B
  5
4B
331
3C
  5
3C
331
25
  5
25
331
C8
  5
C8
331
125
  5
125
331
D6
  5
D6
331
B8
  5
B8
331
59
  5
59
331
4A
  5
4A
331
3B
  5
3B
331
24
  5
24
331
C7
  5
C7
331
124
  5
124
331
D5
  5
D5
331
C6
  5
C6
331
58
  5
58
331
49
  5
49
331
3A
  5
3A
331
23
  5
23
331
B7
  5
B7
331
57
  5
57
331
48
  5
48
331
22
  5
22
331
D3
  5
D3
331
B5
  5
B5
331
47
  5
47
331
38
  5
38
331
21
  5
21
331
56
  5
56
331
121
  5
121
331
B4
  5
B4
331
46
  5
46
331
37
  5
37
331
55
  5
55
331
120
  5
120
331
D1
  5
D1
331
B3
  5
B3
331
54
  5
54
331
1F
  5
1F
331
45
  5
45
331
B2
  5
B2
331
53
  5
53
331
1E
  5
1E
331
44
  5
44
331
B1
  5
B1
331
52
  5
52
331
43
  5
43
331
B0
  5
B0
331
51
  5
51
331
42
  5
42
331
1C
  5
1C
331
33
  5
33
331
50
  5
50
331
41
  5
41
331
32
  5
32
331
1B
  5
1B
331
40
  5
40
331
31
  5
31
331
1A
  5
1A
331
19
  5
19
331
18
  5
18
331
567
  5
567
331
517
  5
517
331
514
  5
514
331
3C6
  5
3C6
331
3C5
  5
3C5
331
3C3
  5
3C3
331
1CC
  5
1CC
331
56E
  5
56E
331
56D
  5
56D
331
1CA
  5
1CA
331
6EF
  5
6EF
331
56C
  5
56C
331
6EE
  5
6EE
331
1C8
  5
1C8
331
56B
  5
56B
331
6ED
  5
6ED
331
1C7
  5
1C7
331
3CD
  5
3CD
331
56A
  5
56A
331
6EC
  5
6EC
331
147
  5
147
331
493
  5
493
331
569
  5
569
331
6EB
  5
6EB
331
519
  5
519
331
568
  5
568
331
6EA
  5
6EA
331
3CA
  5
3CA
331
6E8
  5
6E8
331
102F
  5
10B8
331
102C
  5
1041
331
102B
  5
103F
331
103E
  5
10BC
331
103D
  5
10BB
331
FAA
  5
1032
331
FA9
  5
1031
331
D39
  5
D39
331
D38
  5
D38
331
B8E
  5
B8E
331
B7E
  5
B7E
331
B8D
  5
B8D
331
CBD
  5
CBD
331
CBC
  5
CBC
331
D37
  5
D37
331
CC0
  5
CC0
331
B7A
  5
B7A
331
B89
  5
B89
331
B97
  5
B97
331
B88
  5
B88
331
FB5
  5
103D
331
10C2
  5
13BA
331
B77
  5
B77
331
B93
  5
B93
331
1041
  5
10C1
331
28AF
  5
FAA
331
CB1
  5
CB1
331
28AE
  5
FA9
331
B91
  5
B91
331
CB0
  5
CB0
331
28AD
  5
FA8
331
B90
  5
B90
331
28AC
  5
FA5
331
B80
  5
B80
331
11EA
  5
13CC
331
28AB
  5
FA4
331
11E9
  5
13CB
331
FA5
  5
102E
331
28AA
  5
F89
331
10E1
  5
13BC
331
FA4
  5
102D
331
2CF
  5
2CF
331
2F6
  5
2F6
331
2CE
  5
2CE
331
1032
  5
10BA
331
1031
  5
10B9
331
28B2
  5
102B
331
28B1
  5
FB6
331
2D7
  5
2D7
331
28B0
  5
FB5
331
2D6
  5
2D6
331
2AD
  5
2AD
331
2D3
  5
2D3
331
2D2
  5
2D2
331
2D1
  5
2D1
331
2D0
  5
2D0
  0
XRECORD
  5
548
102
{ACAD_REACTORS
330
547
102
}
330
547
100
AcDbXrecord
280
     1
340
546
  0
XRECORD
  5
54E
102
{ACAD_REACTORS
330
54D
102
}
330
54D
100
AcDbXrecord
280
     1
340
54C
  0
DICTIONARY
  5
2C00
102
{ACAD_REACTORS
330
2BFF
102
}
330
2BFF
100
AcDbDictionary
280
     1
281
     1
  3
Edit
360
2C01
  0
DICTIONARY
  5
2C03
102
{ACAD_REACTORS
330
2C02
102
}
330
2C02
100
AcDbDictionary
280
     1
281
     1
  3
Edit
360
2C04
  0
ACDBASSOCNETWORK
  5
2B25
102
{ACAD_REACTORS
330
2B24
102
}
330
2B24
100
AcDbAssocAction
 90
        1
 90
        1
330
0
360
0
 90
        0
 90
        0
 90
        0
100
AcDbAssocNetwork
 90
        0
 90
        1
 90
        1
330
2B23
 90
        1
330
2B23
  0
ACDBDETAILVIEWSTYLE
  5
1328
102
{ACAD_XDICTIONARY
360
2BFD
102
}
102
{ACAD_REACTORS
330
1327
102
}
330
1327
100
AcDbModelDocViewStyle
 70
     0
  3
Metric50
290
     0
100
AcDbDetailViewStyle
 70
     0
 71
     0
 90
        3
 71
     1
340
9
 40
5.0
340
0
 40
5.0
300

 40
0.0
280
     1
 71
     2
340
8
 90
       25
 71
     3
340
9
 40
5.0
 90
        0
 40
15.0
 90
        1
300
%<\AcVar ViewDetailId>% (%<\AcVar ViewScale \f "%sn">%)
 71
     4
340
8
 90
       25
340
8
 90
       25
280
     0
  0
LAYOUT
  5
54B
102
{ACAD_XDICTIONARY
360
2BC4
102
}
102
{ACAD_REACTORS
330
545
102
}
330
545
100
AcDbPlotSettings
  1

  2
None
  4

  6

 40
0.0
 41
0.0
 42
0.0
 43
0.0
 44
0.0
 45
0.0
 46
0.0
 47
0.0
 48
0.0
 49
0.0
140
0.0
141
0.0
142
1.0
143
1.0
 70
   688
 72
     0
 73
     0
 74
     5
  7
monochrome.ctb
 75
    16
147
1.0
148
0.0
149
0.0
100
AcDbLayout
  1
Layout1
 70
     1
 71
     1
 10
0.0
 20
0.0
 11
12.0
 21
9.0
 12
0.0
 22
0.0
 32
0.0
 14
0.0
 24
0.0
 34
0.0
 15
0.0
 25
0.0
 35
0.0
146
0.0
 13
0.0
 23
0.0
 33
0.0
 16
1.0
 26
0.0
 36
0.0
 17
0.0
 27
1.0
 37
0.0
 76
     0
330
546
  0
LAYOUT
  5
551
102
{ACAD_XDICTIONARY
360
2BC6
102
}
102
{ACAD_REACTORS
330
545
102
}
330
545
100
AcDbPlotSettings
  1

  2
None
  4

  6

 40
0.0
 41
0.0
 42
0.0
 43
0.0
 44
0.0
 45
0.0
 46
0.0
 47
0.0
 48
0.0
 49
0.0
140
0.0
141
0.0
142
1.0
143
1.0
 70
   688
 72
     0
 73
     0
 74
     5
  7
monochrome.ctb
 75
    16
147
1.0
148
0.0
149
0.0
100
AcDbLayout
  1
Layout2
 70
     1
 71
     2
 10
0.0
 20
0.0
 11
12.0
 21
9.0
 12
0.0
 22
0.0
 32
0.0
 14
0.0
 24
0.0
 34
0.0
 15
0.0
 25
0.0
 35
0.0
146
0.0
 13
0.0
 23
0.0
 33
0.0
 16
1.0
 26
0.0
 36
0.0
 17
0.0
 27
1.0
 37
0.0
 76
     0
330
54C
  0
LAYOUT
  5
544
102
{ACAD_XDICTIONARY
360
2BC2
102
}
102
{ACAD_REACTORS
330
545
102
}
330
545
100
AcDbPlotSettings
  1

  2
EPSON LP-9400
  4
A4
  6

 40
5.873749732971191
 41
5.873747825622557
 42
5.873748779296875
 43
5.873748779296875
 44
209.9733276367186
 45
297.0106506347656
 46
2.339999999999998
 47
0.0
 48
0.0
 49
0.0
140
0.0
141
0.0
142
1.0
143
9.816891609963192
 70
 11956
 72
     1
 73
     1
 74
     1
  7
monochrome.ctb
 75
     0
147
0.1018652379725877
148
1264.94917075748
149
959.6633564695521
100
AcDbLayout
  1
Model
 70
     1
 71
     0
 10
0.0
 20
0.0
 11
12.0
 21
9.0
 12
0.0
 22
0.0
 32
0.0
 14
0.0
 24
0.0
 34
0.0
 15
0.0
 25
0.0
 35
0.0
146
0.0
 13
0.0
 23
0.0
 33
0.0
 16
1.0
 26
0.0
 36
0.0
 17
0.0
 27
1.0
 37
0.0
 76
     0
330
2
331
12DA
  0
MATERIAL
  5
12E5
102
{ACAD_XDICTIONARY
360
12E6
102
}
102
{ACAD_REACTORS
330
12DC
102
}
330
12DC
100
AcDbMaterial
  1
ByBlock
 72
     0
 43
0.0008202099737533
 43
0.0
 43
0.0
 43
0.0
 43
0.0
 43
0.0008202099737533
 43
0.0
 43
0.0
 43
0.0
 43
0.0
 43
1.0
 43
0.0
 43
0.0
 43
0.0
 43
0.0
 43
1.0
 77
     0
 47
0.0008202099737533
 47
0.0
 47
0.0
 47
0.0
 47
0.0
 47
0.0008202099737533
 47
0.0
 47
0.0
 47
0.0
 47
0.0
 47
1.0
 47
0.0
 47
0.0
 47
0.0
 47
0.0
 47
1.0
171
     0
 49
0.0008202099737533
 49
0.0
 49
0.0
 49
0.0
 49
0.0
 49
0.0008202099737533
 49
0.0
 49
0.0
 49
0.0
 49
0.0
 49
1.0
 49
0.0
 49
0.0
 49
0.0
 49
0.0
 49
1.0
175
     0
142
0.0008202099737533
142
0.0
142
0.0
142
0.0
142
0.0
142
0.0008202099737533
142
0.0
142
0.0
142
0.0
142
0.0
142
1.0
142
0.0
142
0.0
142
0.0
142
0.0
142
1.0
179
     0
144
0.0008202099737533
144
0.0
144
0.0
144
0.0
144
0.0
144
0.0008202099737533
144
0.0
144
0.0
144
0.0
144
0.0
144
1.0
144
0.0
144
0.0
144
0.0
144
0.0
144
1.0
147
0.0008202099737533
147
0.0
147
0.0
147
0.0
147
0.0
147
0.0008202099737533
147
0.0
147
0.0
147
0.0
147
0.0
147
1.0
147
0.0
147
0.0
147
0.0
147
0.0
147
1.0
  0
MATERIAL
  5
12DD
102
{ACAD_XDICTIONARY
360
12DE
102
}
102
{ACAD_REACTORS
330
12DC
102
}
330
12DC
100
AcDbMaterial
  1
ByLayer
 72
     0
 43
0.0008202099737533
 43
0.0
 43
0.0
 43
0.0
 43
0.0
 43
0.0008202099737533
 43
0.0
 43
0.0
 43
0.0
 43
0.0
 43
1.0
 43
0.0
 43
0.0
 43
0.0
 43
0.0
 43
1.0
 77
     0
 47
0.0008202099737533
 47
0.0
 47
0.0
 47
0.0
 47
0.0
 47
0.0008202099737533
 47
0.0
 47
0.0
 47
0.0
 47
0.0
 47
1.0
 47
0.0
 47
0.0
 47
0.0
 47
0.0
 47
1.0
171
     0
 49
0.0008202099737533
 49
0.0
 49
0.0
 49
0.0
 49
0.0
 49
0.0008202099737533
 49
0.0
 49
0.0
 49
0.0
 49
0.0
 49
1.0
 49
0.0
 49
0.0
 49
0.0
 49
0.0
 49
1.0
175
     0
142
0.0008202099737533
142
0.0
142
0.0
142
0.0
142
0.0
142
0.0008202099737533
142
0.0
142
0.0
142
0.0
142
0.0
142
1.0
142
0.0
142
0.0
142
0.0
142
0.0
142
1.0
179
     0
144
0.0008202099737533
144
0.0
144
0.0
144
0.0
144
0.0
144
0.0008202099737533
144
0.0
144
0.0
144
0.0
144
0.0
144
1.0
144
0.0
144
0.0
144
0.0
144
0.0
144
1.0
147
0.0008202099737533
147
0.0
147
0.0
147
0.0
147
0.0
147
0.0008202099737533
147
0.0
147
0.0
147
0.0
147
0.0
147
1.0
147
0.0
147
0.0
147
0.0
147
0.0
147
1.0
  0
MATERIAL
  5
12ED
102
{ACAD_XDICTIONARY
360
12EE
102
}
102
{ACAD_REACTORS
330
12DC
102
}
330
12DC
100
AcDbMaterial
  1
Global
 72
     0
 43
0.0008202099737533
 43
0.0
 43
0.0
 43
0.0
 43
0.0
 43
0.0008202099737533
 43
0.0
 43
0.0
 43
0.0
 43
0.0
 43
1.0
 43
0.0
 43
0.0
 43
0.0
 43
0.0
 43
1.0
 77
     0
 47
0.0008202099737533
 47
0.0
 47
0.0
 47
0.0
 47
0.0
 47
0.0008202099737533
 47
0.0
 47
0.0
 47
0.0
 47
0.0
 47
1.0
 47
0.0
 47
0.0
 47
0.0
 47
0.0
 47
1.0
171
     0
 49
0.0008202099737533
 49
0.0
 49
0.0
 49
0.0
 49
0.0
 49
0.0008202099737533
 49
0.0
 49
0.0
 49
0.0
 49
0.0
 49
1.0
 49
0.0
 49
0.0
 49
0.0
 49
0.0
 49
1.0
175
     0
142
0.0008202099737533
142
0.0
142
0.0
142
0.0
142
0.0
142
0.0008202099737533
142
0.0
142
0.0
142
0.0
142
0.0
142
1.0
142
0.0
142
0.0
142
0.0
142
0.0
142
1.0
179
     0
144
0.0008202099737533
144
0.0
144
0.0
144
0.0
144
0.0
144
0.0008202099737533
144
0.0
144
0.0
144
0.0
144
0.0
144
1.0
144
0.0
144
0.0
144
0.0
144
0.0
144
1.0
147
0.0008202099737533
147
0.0
147
0.0
147
0.0
147
0.0
147
0.0008202099737533
147
0.0
147
0.0
147
0.0
147
0.0
147
1.0
147
0.0
147
0.0
147
0.0
147
0.0
147
1.0
  0
MLEADERSTYLE
  5
1324
102
{ACAD_XDICTIONARY
360
2BF9
102
}
102
{ACAD_REACTORS
330
1323
102
}
330
1323
100
AcDbMLeaderStyle
170
     2
171
     1
172
     0
 90
        2
 40
0.0
 41
0.0
173
     1
 91
-1056964608
340
556
 92
       -2
290
     1
 42
2.0
291
     1
 43
0.36
  3
Standard
 44
4.0
300

342
9
174
     1
178
     6
175
     1
176
     0
 93
-1056964608
 45
4.0
292
     0
297
     0
 46
4.0
 94
-1056964608
 47
1.0
 49
1.0
140
1.0
293
     1
141
0.0
294
     1
177
     0
142
1.0
295
     0
296
     0
143
0.125
1001
ACAD_MLEADERVER
1070
     2
  0
MLINESTYLE
  5
562
102
{ACAD_REACTORS
330
560
102
}
330
560
100
AcDbMlineStyle
  2
STANDARD
 70
     0
  3

 62
   256
 51
90.0
 52
90.0
 71
     2
 49
0.5
 62
   256
  6
BYLAYER
 49
-0.5
 62
   256
  6
BYLAYER
  0
ACDBPLACEHOLDER
  5
5
102
{ACAD_REACTORS
330
6
102
}
330
6
  0
SCALE
  5
1312
102
{ACAD_REACTORS
330
1311
102
}
330
1311
100
AcDbScale
 70
     0
300
1:1
140
1.0
141
1.0
290
     1
  0
SCALE
  5
1313
102
{ACAD_REACTORS
330
1311
102
}
330
1311
100
AcDbScale
 70
     0
300
1:2
140
1.0
141
2.0
290
     0
  0
SCALE
  5
1314
102
{ACAD_REACTORS
330
1311
102
}
330
1311
100
AcDbScale
 70
     0
300
1:4
140
1.0
141
4.0
290
     0
  0
SCALE
  5
1315
102
{ACAD_REACTORS
330
1311
102
}
330
1311
100
AcDbScale
 70
     0
300
1:5
140
1.0
141
5.0
290
     0
  0
SCALE
  5
1316
102
{ACAD_REACTORS
330
1311
102
}
330
1311
100
AcDbScale
 70
     0
300
1:8
140
1.0
141
8.0
290
     0
  0
SCALE
  5
1317
102
{ACAD_REACTORS
330
1311
102
}
330
1311
100
AcDbScale
 70
     0
300
1:10
140
1.0
141
10.0
290
     0
  0
SCALE
  5
1318
102
{ACAD_REACTORS
330
1311
102
}
330
1311
100
AcDbScale
 70
     0
300
1:16
140
1.0
141
16.0
290
     0
  0
SCALE
  5
1319
102
{ACAD_REACTORS
330
1311
102
}
330
1311
100
AcDbScale
 70
     0
300
1:20
140
1.0
141
20.0
290
     0
  0
SCALE
  5
131A
102
{ACAD_REACTORS
330
1311
102
}
330
1311
100
AcDbScale
 70
     0
300
1:30
140
1.0
141
30.0
290
     0
  0
SCALE
  5
131B
102
{ACAD_REACTORS
330
1311
102
}
330
1311
100
AcDbScale
 70
     0
300
1:40
140
1.0
141
40.0
290
     0
  0
SCALE
  5
131C
102
{ACAD_REACTORS
330
1311
102
}
330
1311
100
AcDbScale
 70
     0
300
1:50
140
1.0
141
50.0
290
     0
  0
SCALE
  5
131D
102
{ACAD_REACTORS
330
1311
102
}
330
1311
100
AcDbScale
 70
     0
300
1:100
140
1.0
141
100.0
290
     0
  0
SCALE
  5
131E
102
{ACAD_REACTORS
330
1311
102
}
330
1311
100
AcDbScale
 70
     0
300
2:1
140
2.0
141
1.0
290
     0
  0
SCALE
  5
131F
102
{ACAD_REACTORS
330
1311
102
}
330
1311
100
AcDbScale
 70
     0
300
4:1
140
4.0
141
1.0
290
     0
  0
SCALE
  5
1320
102
{ACAD_REACTORS
330
1311
102
}
330
1311
100
AcDbScale
 70
     0
300
8:1
140
8.0
141
1.0
290
     0
  0
SCALE
  5
1321
102
{ACAD_REACTORS
330
1311
102
}
330
1311
100
AcDbScale
 70
     0
300
10:1
140
10.0
141
1.0
290
     0
  0
SCALE
  5
1322
102
{ACAD_REACTORS
330
1311
102
}
330
1311
100
AcDbScale
 70
     0
300
100:1
140
100.0
141
1.0
290
     0
  0
ACDBSECTIONVIEWSTYLE
  5
1326
102
{ACAD_XDICTIONARY
360
2BFB
102
}
102
{ACAD_REACTORS
330
1325
102
}
330
1325
100
AcDbModelDocViewStyle
 70
     0
  3
Metric50
290
     0
100
AcDbSectionViewStyle
 70
     0
 71
     0
 90
      102
 71
     1
340
9
 40
5.0
340
0
340
0
 40
5.0
300
I, O, Q, S, X, Z
 40
10.0
 90
        0
 40
2.5
 90
        0
 71
     2
340
8
 90
       25
340
8
 90
       50
 40
5.0
 40
2.5
 40
5.0
 71
     3
340
9
 40
5.0
 90
        0
 40
15.0
 90
        1
300
%<\AcVar ViewSectionStartId>%-%<\AcVar ViewSectionEndId>% (%<\AcVar ViewScale \f "%sn">%)
 71
     4
300
ANSI31
 40
1.0
 90
        0
290
     0
290
     0
 90
        6
 40
0.0
 40
1.570796326794896
 40
0.2617993877991494
 40
1.308996938995747
 40
-0.2617993877991494
 40
1.832595714594045
  0
TABLESTYLE
  5
1310
102
{ACAD_XDICTIONARY
360
1A19
102
}
102
{ACAD_REACTORS
330
130F
102
}
330
130F
100
AcDbTableStyle
  3
Standard
 70
     0
 71
     0
 40
1.5
 41
1.5
280
     0
281
     0
  7
Standard
140
4.5
170
     2
 62
     0
 63
     7
283
     0
274
    -2
284
     1
 64
     0
275
    -2
285
     1
 65
     0
276
    -2
286
     1
 66
     0
277
    -2
287
     1
 67
     0
278
    -2
288
     1
 68
     0
279
    -2
289
     1
 69
     0
  7
Standard
140
6.0
170
     5
 62
     0
 63
     7
283
     0
274
    -2
284
     1
 64
     0
275
    -2
285
     1
 65
     0
276
    -2
286
     1
 66
     0
277
    -2
287
     1
 67
     0
278
    -2
288
     1
 68
     0
279
    -2
289
     1
 69
     0
  7
Standard
140
4.5
170
     5
 62
     0
 63
     7
283
     0
274
    -2
284
     1
 64
     0
275
    -2
285
     1
 65
     0
276
    -2
286
     1
 66
     0
277
    -2
287
     1
 67
     0
278
    -2
288
     1
 68
     0
279
    -2
289
     1
 69
     0
  0
VISUALSTYLE
  5
12FB
102
{ACAD_XDICTIONARY
360
2BD2
102
}
102
{ACAD_REACTORS
330
12F5
102
}
330
12F5
100
AcDbVisualStyle
  2

 70
     4
 71
     0
 72
     2
 73
     0
 90
        0
 40
-0.6
 41
-30.0
 62
     5
 63
     7
 74
     1
 91
        4
 64
     7
 65
   257
 75
     1
175
     1
 42
1.0
 92
        0
 66
   257
 43
1.0
 76
     1
 77
     6
 78
     2
 67
     7
 79
     5
170
     0
171
     0
290
     0
174
     0
 93
        1
 44
0.0
173
     0
291
     0
 45
0.0
1001
ACAD
1000
AcDbSavedByObjectVersion
1070
     0
  0
VISUALSTYLE
  5
12FA
102
{ACAD_XDICTIONARY
360
2BD0
102
}
102
{ACAD_REACTORS
330
12F5
102
}
330
12F5
100
AcDbVisualStyle
  2

 70
     7
 71
     1
 72
     0
 73
     1
 90
        0
 40
-0.6
 41
-30.0
 62
     5
 63
     7
 74
     0
 91
        4
 64
     7
 65
   257
 75
     1
175
     1
 42
1.0
 92
        8
 66
     7
 43
1.0
 76
     1
 77
     6
 78
     2
 67
     7
 79
     5
170
     0
171
     0
290
     0
174
     0
 93
        1
 44
0.0
173
     0
291
     1
 45
0.0
1001
ACAD
1000
AcDbSavedByObjectVersion
1070
     0
  0
VISUALSTYLE
  5
1301
102
{ACAD_XDICTIONARY
360
2BDE
102
}
102
{ACAD_REACTORS
330
12F5
102
}
330
12F5
100
AcDbVisualStyle
  2

 70
    12
 71
     2
 72
     2
 73
     0
 90
        0
 40
-0.6
 41
-30.0
 62
     5
 63
     7
 74
     1
 91
        4
 64
     7
 65
   257
 75
     1
175
     1
 42
1.0
 92
        8
 66
     7
 43
1.0
 76
     1
 77
     6
 78
     2
 67
     7
 79
     5
170
     0
171
     0
290
     0
174
     0
 93
        1
 44
50.0
173
     0
291
     1
 45
0.0
1001
ACAD
1000
AcDbSavedByObjectVersion
1070
     0
  0
VISUALSTYLE
  5
1305
102
{ACAD_XDICTIONARY
360
2BE6
102
}
102
{ACAD_REACTORS
330
12F5
102
}
330
12F5
100
AcDbVisualStyle
  2

 70
    16
 71
     2
 72
     2
 73
     3
 90
        0
 40
-0.6
 41
-30.0
 62
     5
 63
     8
 74
     1
 91
        4
 64
     7
 65
   257
 75
     1
175
     1
 42
1.0
 92
        8
 66
     8
 43
1.0
 76
     1
 77
     6
 78
     2
 67
     7
 79
     5
170
     0
171
     0
290
     0
174
     0
 93
        1
 44
0.0
173
     0
291
     1
 45
0.0
1001
ACAD
1000
AcDbSavedByObjectVersion
1070
     0
  0
VISUALSTYLE
  5
12FE
102
{ACAD_XDICTIONARY
360
2BD8
102
}
102
{ACAD_REACTORS
330
12F5
102
}
330
12F5
100
AcDbVisualStyle
  2

 70
     9
 71
     3
 72
     2
 73
     0
 90
        0
 40
-0.6
 41
-30.0
 62
     5
 63
     7
 74
     2
 91
        2
 64
     7
 65
   257
 75
     1
175
     1
 42
179.0
 92
        8
 66
     7
 43
1.0
 76
     1
 77
     6
 78
     2
 67
     7
 79
     3
170
     0
171
     0
290
     0
174
     0
 93
        1
 44
0.0
173
     0
291
     0
 45
0.0
1001
ACAD
1000
AcDbSavedByObjectVersion
1070
     0
  0
VISUALSTYLE
  5
1300
102
{ACAD_XDICTIONARY
360
2BDC
102
}
102
{ACAD_REACTORS
330
12F5
102
}
330
12F5
100
AcDbVisualStyle
  2

 70
    11
 71
     2
 72
     2
 73
     0
 90
        0
 40
-0.6
 41
-30.0
 62
     5
 63
     7
 74
     1
 91
        4
 64
     7
 65
   257
 75
     1
175
     1
 42
1.0
 92
        8
 66
     7
 43
1.0
 76
     1
 77
     6
 78
     2
 67
     7
 79
     5
170
     0
171
     0
290
     0
174
     0
 93
        1
 44
-50.0
173
     0
291
     1
 45
0.0
1001
ACAD
1000
AcDbSavedByObjectVersion
1070
     0
  0
VISUALSTYLE
  5
130D
102
{ACAD_XDICTIONARY
360
2BF6
102
}
102
{ACAD_REACTORS
330
12F5
102
}
330
12F5
100
AcDbVisualStyle
  2

 70
    22
 71
     2
 72
     2
 73
     0
 90
        0
 40
-0.6
 41
-30.0
 62
     5
 63
     7
 74
     1
 91
        4
 64
     7
 65
   257
 75
     1
175
     1
 42
1.0
 92
        8
 66
     7
 43
1.0
 76
     1
 77
     6
 78
     2
 67
     7
 79
     5
170
     0
171
     0
290
     0
174
     0
 93
        1
 44
0.0
173
     0
291
     1
 45
0.0
1001
ACAD
1000
AcDbSavedByObjectVersion
1070
     0
  0
VISUALSTYLE
  5
1304
102
{ACAD_XDICTIONARY
360
2BE4
102
}
102
{ACAD_REACTORS
330
12F5
102
}
330
12F5
100
AcDbVisualStyle
  2

 70
    15
 71
     2
 72
     2
 73
     0
 90
        0
 40
-0.6
 41
-30.0
 62
     5
 63
     7
 74
     1
 91
        4
 64
     7
 65
   257
 75
     1
175
     1
 42
1.0
 92
        8
 66
     7
 43
1.0
 76
     1
 77
     6
 78
     2
 67
     7
 79
     5
170
     0
171
     0
290
     0
174
     0
 93
        1
 44
0.0
173
     0
291
     1
 45
0.0
1001
ACAD
1000
AcDbSavedByObjectVersion
1070
     0
  0
VISUALSTYLE
  5
12F6
102
{ACAD_XDICTIONARY
360
2BC8
102
}
102
{ACAD_REACTORS
330
12F5
102
}
330
12F5
100
AcDbVisualStyle
  2

 70
     0
 71
     2
 72
     1
 73
     1
 90
        2
 40
-0.6
 41
30.0
 62
     5
 63
     7
 74
     0
 91
        0
 64
     7
 65
   257
 75
     1
175
     1
 42
1.0
 92
        8
 66
     7
 43
1.0
 76
     1
 77
     6
 78
     2
 67
     7
 79
     5
170
     0
171
     0
290
     0
174
     0
 93
       13
 44
0.0
173
     0
291
     1
 45
0.0
1001
ACAD
1000
AcDbSavedByObjectVersion
1070
     0
  0
VISUALSTYLE
  5
12F7
102
{ACAD_XDICTIONARY
360
2BCA
102
}
102
{ACAD_REACTORS
330
12F5
102
}
330
12F5
100
AcDbVisualStyle
  2

 70
     1
 71
     2
 72
     1
 73
     1
 90
        2
 40
-0.6
 41
30.0
 62
     5
 63
     7
 74
     1
 91
        0
 64
     7
 65
   257
 75
     1
175
     1
 42
1.0
 92
        0
 66
   257
 43
1.0
 76
     1
 77
     6
 78
     2
 67
     7
 79
     5
170
     0
171
     0
290
     0
174
     0
 93
       13
 44
0.0
173
     0
291
     1
 45
0.0
1001
ACAD
1000
AcDbSavedByObjectVersion
1070
     0
  0
VISUALSTYLE
  5
12F8
102
{ACAD_XDICTIONARY
360
2BCC
102
}
102
{ACAD_REACTORS
330
12F5
102
}
330
12F5
100
AcDbVisualStyle
  2

 70
     2
 71
     2
 72
     2
 73
     1
 90
        2
 40
-0.6
 41
30.0
 62
     5
 63
     7
 74
     0
 91
        0
 64
     7
 65
   257
 75
     1
175
     1
 42
1.0
 92
        0
 66
     7
 43
1.0
 76
     1
 77
     6
 78
     2
 67
     7
 79
     5
170
     0
171
     0
290
     0
174
     0
 93
       13
 44
0.0
173
     0
291
     1
 45
0.0
1001
ACAD
1000
AcDbSavedByObjectVersion
1070
     0
  0
VISUALSTYLE
  5
12F9
102
{ACAD_XDICTIONARY
360
2BCE
102
}
102
{ACAD_REACTORS
330
12F5
102
}
330
12F5
100
AcDbVisualStyle
  2

 70
     3
 71
     2
 72
     2
 73
     1
 90
        2
 40
-0.6
 41
30.0
 62
     5
 63
     7
 74
     1
 91
        0
 64
     7
 65
   257
 75
     1
175
     1
 42
1.0
 92
        0
 66
   257
 43
1.0
 76
     1
 77
     6
 78
     2
 67
     7
 79
     5
170
     0
171
     0
290
     0
174
     0
 93
       13
 44
0.0
173
     0
291
     1
 45
0.0
1001
ACAD
1000
AcDbSavedByObjectVersion
1070
     0
  0
VISUALSTYLE
  5
12FD
102
{ACAD_XDICTIONARY
360
2BD6
102
}
102
{ACAD_REACTORS
330
12F5
102
}
330
12F5
100
AcDbVisualStyle
  2

 70
     6
 71
     1
 72
     2
 73
     2
 90
        0
 40
-0.6
 41
-30.0
 62
     5
 63
     7
 74
     2
 91
        2
 64
     7
 65
   257
 75
     2
175
     1
 42
40.0
 92
        0
 66
   257
 43
1.0
 76
     1
 77
     6
 78
     2
 67
     7
 79
     3
170
     0
171
     0
290
     0
174
     0
 93
        1
 44
0.0
173
     0
291
     0
 45
0.0
1001
ACAD
1000
AcDbSavedByObjectVersion
1070
     0
  0
VISUALSTYLE
  5
130B
102
{ACAD_XDICTIONARY
360
2BF2
102
}
102
{ACAD_REACTORS
330
12F5
102
}
330
12F5
100
AcDbVisualStyle
  2

 70
    20
 71
     2
 72
     2
 73
     0
 90
        0
 40
-0.6
 41
-30.0
 62
     5
 63
     7
 74
     1
 91
        4
 64
     7
 65
   257
 75
     1
175
     1
 42
1.0
 92
       10
 66
     7
 43
1.0
 76
     1
 77
     6
 78
     2
 67
     7
 79
     5
170
     0
171
     0
290
     0
174
     0
 93
        1
 44
0.0
173
     0
291
     1
 45
0.0
1001
ACAD
1000
AcDbSavedByObjectVersion
1070
     0
  0
VISUALSTYLE
  5
1303
102
{ACAD_XDICTIONARY
360
2BE2
102
}
102
{ACAD_REACTORS
330
12F5
102
}
330
12F5
100
AcDbVisualStyle
  2

 70
    14
 71
     2
 72
     2
 73
     0
 90
        0
 40
-0.6
 41
-30.0
 62
     5
 63
     7
 74
     1
 91
        4
 64
     7
 65
   257
 75
     7
175
     7
 42
1.0
 92
        8
 66
     7
 43
1.0
 76
     1
 77
     6
 78
     2
 67
     7
 79
     5
170
     0
171
     0
290
     0
174
     0
 93
        1
 44
0.0
173
     0
291
     1
 45
0.0
1001
ACAD
1000
AcDbSavedByObjectVersion
1070
     0
  0
VISUALSTYLE
  5
130C
102
{ACAD_XDICTIONARY
360
2BF4
102
}
102
{ACAD_REACTORS
330
12F5
102
}
330
12F5
100
AcDbVisualStyle
  2

 70
    21
 71
     2
 72
     2
 73
     0
 90
        0
 40
-0.6
 41
-30.0
 62
     5
 63
     7
 74
     1
 91
        4
 64
     7
 65
   257
 75
     1
175
     1
 42
1.0
 92
        9
 66
     7
 43
1.0
 76
     1
 77
     6
 78
     2
 67
     7
 79
     5
170
     0
171
     0
290
     0
174
     0
 93
        1
 44
0.0
173
     0
291
     1
 45
0.0
1001
ACAD
1000
AcDbSavedByObjectVersion
1070
     0
  0
VISUALSTYLE
  5
12FF
102
{ACAD_XDICTIONARY
360
2BDA
102
}
102
{ACAD_REACTORS
330
12F5
102
}
330
12F5
100
AcDbVisualStyle
  2

 70
     8
 71
     2
 72
     2
 73
     0
 90
        2
 40
-0.6
 41
30.0
 62
     5
 63
     7
 74
     0
 91
        0
 64
     7
 65
   257
 75
     1
175
     1
 42
1.0
 92
        8
 66
   257
 43
1.0
 76
     1
 77
     6
 78
     2
 67
     7
 79
     3
170
     0
171
     0
290
     0
174
     0
 93
       13
 44
0.0
173
     0
291
     0
 45
0.0
1001
ACAD
1000
AcDbSavedByObjectVersion
1070
     0
  0
VISUALSTYLE
  5
130A
102
{ACAD_XDICTIONARY
360
2BF0
102
}
102
{ACAD_REACTORS
330
12F5
102
}
330
12F5
100
AcDbVisualStyle
  2

 70
    27
 71
     2
 72
     2
 73
     1
 90
        2
 40
-0.6
 41
30.0
 62
     5
 63
     7
 74
     0
 91
        4
 64
     7
 65
   257
 75
     1
175
     1
 42
1.0
 92
        8
 66
   257
 43
1.0
 76
     1
 77
     6
 78
     2
 67
     8
 79
     3
170
     0
171
     0
290
     0
174
     0
 93
        5
 44
0.0
173
     0
291
     0
 45
0.0
1001
ACAD
1000
AcDbSavedByObjectVersion
1070
     0
  0
VISUALSTYLE
  5
1309
102
{ACAD_XDICTIONARY
360
2BEE
102
}
102
{ACAD_REACTORS
330
12F5
102
}
330
12F5
100
AcDbVisualStyle
  2

 70
    26
 71
     2
 72
     2
 73
     1
 90
        2
 40
-0.6
 41
30.0
 62
     5
 63
     7
 74
     1
 91
       10
 64
     7
 65
   257
 75
     2
175
     1
 42
1.0
 92
        8
 66
   257
 43
1.0
 76
     1
 77
     6
 78
     2
 67
     7
 79
     3
170
     0
171
     0
290
     0
174
     0
 93
        5
 44
0.0
173
     0
291
     0
 45
0.0
1001
ACAD
1000
AcDbSavedByObjectVersion
1070
     0
  0
VISUALSTYLE
  5
1306
102
{ACAD_XDICTIONARY
360
2BE8
102
}
102
{ACAD_REACTORS
330
12F5
102
}
330
12F5
100
AcDbVisualStyle
  2

 70
    23
 71
     2
 72
     2
 73
     3
 90
        0
 40
-0.6
 41
-30.0
 62
     5
 63
     7
 74
     2
 91
        2
 64
     7
 65
     7
 75
     1
175
     1
 42
40.0
 92
        8
 66
     7
 43
1.0
 76
     1
 77
     6
 78
     2
 67
     7
 79
     3
170
     0
171
     0
290
     0
174
     0
 93
        1
 44
0.0
173
     0
291
     0
 45
0.0
1001
ACAD
1000
AcDbSavedByObjectVersion
1070
     0
  0
VISUALSTYLE
  5
1307
102
{ACAD_XDICTIONARY
360
2BEA
102
}
102
{ACAD_REACTORS
330
12F5
102
}
330
12F5
100
AcDbVisualStyle
  2

 70
    24
 71
     1
 72
     2
 73
     2
 90
        0
 40
-0.6
 41
-30.0
 62
     5
 63
     7
 74
     2
 91
        2
 64
     7
 65
     7
 75
     1
175
     1
 42
40.0
 92
       11
 66
     7
 43
1.0
 76
     1
 77
     6
 78
     2
 67
     7
 79
     6
170
     0
171
     0
290
     0
174
     0
 93
        1
 44
0.0
173
     0
291
     0
 45
0.0
1001
ACAD
1000
AcDbSavedByObjectVersion
1070
     0
  0
VISUALSTYLE
  5
1302
102
{ACAD_XDICTIONARY
360
2BE0
102
}
102
{ACAD_REACTORS
330
12F5
102
}
330
12F5
100
AcDbVisualStyle
  2

 70
    13
 71
     2
 72
     2
 73
     0
 90
        0
 40
-0.6
 41
-30.0
 62
     5
 63
     7
 74
     1
 91
        4
 64
     7
 65
   257
 75
     1
175
     1
 42
1.0
 92
       12
 66
     7
 43
1.0
 76
     1
 77
     6
 78
     2
 67
     7
 79
     5
170
     0
171
     0
290
     0
174
     0
 93
        1
 44
0.0
173
     0
291
     1
 45
0.0
1001
ACAD
1000
AcDbSavedByObjectVersion
1070
     0
  0
VISUALSTYLE
  5
12FC
102
{ACAD_XDICTIONARY
360
2BD4
102
}
102
{ACAD_REACTORS
330
12F5
102
}
330
12F5
100
AcDbVisualStyle
  2

 70
     5
 71
     0
 72
     2
 73
     0
 90
        0
 40
-0.6
 41
-30.0
 62
     5
 63
     7
 74
     1
 91
        4
 64
     7
 65
   257
 75
     1
175
     1
 42
1.0
 92
        0
 66
   257
 43
1.0
 76
     1
 77
     6
 78
     2
 67
     7
 79
     3
170
     0
171
     0
290
     0
174
     0
 93
        1
 44
0.0
173
     0
291
     0
 45
0.0
1001
ACAD
1000
AcDbSavedByObjectVersion
1070
     0
  0
VISUALSTYLE
  5
1308
102
{ACAD_XDICTIONARY
360
2BEC
102
}
102
{ACAD_REACTORS
330
12F5
102
}
330
12F5
100
AcDbVisualStyle
  2

 70
    25
 71
     2
 72
     2
 73
     1
 90
        1
 40
0.5
 41
-30.0
 62
     5
 63
     7
 74
     1
 91
        0
 64
     7
 65
   257
 75
     1
175
     1
 42
1.0
 92
        8
 66
     7
 43
1.0
 76
     1
 77
     6
 78
     2
 67
     7
 79
     3
170
     0
171
     0
290
     0
174
     0
 93
       13
 44
0.0
173
     0
291
     0
 45
0.0
1001
ACAD
1000
AcDbSavedByObjectVersion
1070
     0
  0
DICTIONARYVAR
  5
1A67
102
{ACAD_REACTORS
330
1412
102
}
330
1412
100
DictionaryVariables
280
     0
  1
1:1
  0
DICTIONARYVAR
  5
1A64
102
{ACAD_REACTORS
330
1412
102
}
330
1412
100
DictionaryVariables
280
     0
  1
STANDARD
  0
DICTIONARYVAR
  5
1A63
102
{ACAD_REACTORS
330
1412
102
}
330
1412
100
DictionaryVariables
280
     0
  1
STANDARD
  0
DICTIONARYVAR
  5
1A65
102
{ACAD_REACTORS
330
1412
102
}
330
1412
100
DictionaryVariables
280
     0
  1
Metric50
  0
DICTIONARYVAR
  5
1A66
102
{ACAD_REACTORS
330
1412
102
}
330
1412
100
DictionaryVariables
280
     0
  1
Metric50
  0
DICTIONARYVAR
  5
1A6A
102
{ACAD_REACTORS
330
1412
102
}
330
1412
100
DictionaryVariables
280
     0
  1
1
  0
DICTIONARYVAR
  5
1A69
102
{ACAD_REACTORS
330
1412
102
}
330
1412
100
DictionaryVariables
280
     0
  1
0
  0
DICTIONARYVAR
  5
1A68
102
{ACAD_REACTORS
330
1412
102
}
330
1412
100
DictionaryVariables
280
     0
  1
127
  0
DICTIONARYVAR
  5
2BBE
102
{ACAD_REACTORS
330
1412
102
}
330
1412
100
DictionaryVariables
280
     0
  1
2
  0
ACDBASSOCNETWORK
  5
2B23
102
{ACAD_REACTORS
330
2B22
102
}
330
2B22
100
AcDbAssocAction
 90
        1
 90
        1
330
2B25
360
0
 90
        1
 90
        0
 90
        0
100
AcDbAssocNetwork
 90
        0
 90
        2
 90
        2
360
2B26
360
2B74
 90
        2
330
2B26
330
2B74
  0
XRECORD
  5
2C01
102
{ACAD_REACTORS
330
2C00
102
}
330
2C00
100
AcDbXrecord
280
     1
1070
     0
1070
     1
1070
     1
  0
XRECORD
  5
2C04
102
{ACAD_REACTORS
330
2C03
102
}
330
2C03
100
AcDbXrecord
280
     1
1070
     0
1070
     1
1070
     1
  0
DICTIONARY
  5
2BFD
330
1328
100
AcDbDictionary
280
     1
281
     1
  3
ACAD_XREC_ROUNDTRIP
360
2BFE
  0
DICTIONARY
  5
2BC4
330
54B
100
AcDbDictionary
280
     1
281
     1
  3
ACAD_XREC_ROUNDTRIP
360
2BC5
  0
DICTIONARY
  5
2BC6
330
551
100
AcDbDictionary
280
     1
281
     1
  3
ACAD_XREC_ROUNDTRIP
360
2BC7
  0
DICTIONARY
  5
2BC2
330
544
100
AcDbDictionary
280
     1
281
     1
  3
ACAD_XREC_ROUNDTRIP
360
2BC3
  0
DICTIONARY
  5
12E6
330
12E5
100
AcDbDictionary
280
     1
281
     1
  3
ACAD_XREC_ROUNDTRIP
360
2AAA
  3
BUMPTILE
360
12E8
  3
DIFFUSETILE
360
12E7
  3
OPACITYTILE
360
12EB
  3
REFLECTIONTILE
360
12EA
  3
REFRACTIONTILE
360
12EC
  3
SPECULARTILE
360
12E9
  0
DICTIONARY
  5
12DE
330
12DD
100
AcDbDictionary
280
     1
281
     1
  3
ACAD_XREC_ROUNDTRIP
360
2AA9
  3
BUMPTILE
360
12E0
  3
DIFFUSETILE
360
12DF
  3
OPACITYTILE
360
12E3
  3
REFLECTIONTILE
360
12E2
  3
REFRACTIONTILE
360
12E4
  3
SPECULARTILE
360
12E1
  0
DICTIONARY
  5
12EE
330
12ED
100
AcDbDictionary
280
     1
281
     1
  3
ACAD_XREC_ROUNDTRIP
360
2AAB
  3
BUMPTILE
360
12F0
  3
DIFFUSETILE
360
12EF
  3
OPACITYTILE
360
12F3
  3
REFLECTIONTILE
360
12F2
  3
REFRACTIONTILE
360
12F4
  3
SPECULARTILE
360
12F1
  0
DICTIONARY
  5
2BF9
330
1324
100
AcDbDictionary
280
     1
281
     1
  3
ACAD_XREC_ROUNDTRIP
360
2BFA
  0
DICTIONARY
  5
2BFB
330
1326
100
AcDbDictionary
280
     1
281
     1
  3
ACAD_XREC_ROUNDTRIP
360
2BFC
  0
DICTIONARY
  5
1A19
330
1310
100
AcDbDictionary
280
     1
281
     1
  3
ACAD_ROUNDTRIP_2008_TABLESTYLE_CELLSTYLEMAP
360
2BBF
  3
ACAD_XREC_ROUNDTRIP
360
2BF8
  0
DICTIONARY
  5
2BD2
330
12FB
100
AcDbDictionary
280
     1
281
     1
  3
ACAD_XREC_ROUNDTRIP
360
2BD3
  0
DICTIONARY
  5
2BD0
330
12FA
100
AcDbDictionary
280
     1
281
     1
  3
ACAD_XREC_ROUNDTRIP
360
2BD1
  0
DICTIONARY
  5
2BDE
330
1301
100
AcDbDictionary
280
     1
281
     1
  3
ACAD_XREC_ROUNDTRIP
360
2BDF
  0
DICTIONARY
  5
2BE6
330
1305
100
AcDbDictionary
280
     1
281
     1
  3
ACAD_XREC_ROUNDTRIP
360
2BE7
  0
DICTIONARY
  5
2BD8
330
12FE
100
AcDbDictionary
280
     1
281
     1
  3
ACAD_XREC_ROUNDTRIP
360
2BD9
  0
DICTIONARY
  5
2BDC
330
1300
100
AcDbDictionary
280
     1
281
     1
  3
ACAD_XREC_ROUNDTRIP
360
2BDD
  0
DICTIONARY
  5
2BF6
330
130D
100
AcDbDictionary
280
     1
281
     1
  3
ACAD_XREC_ROUNDTRIP
360
2BF7
  0
DICTIONARY
  5
2BE4
330
1304
100
AcDbDictionary
280
     1
281
     1
  3
ACAD_XREC_ROUNDTRIP
360
2BE5
  0
DICTIONARY
  5
2BC8
330
12F6
100
AcDbDictionary
280
     1
281
     1
  3
ACAD_XREC_ROUNDTRIP
360
2BC9
  0
DICTIONARY
  5
2BCA
330
12F7
100
AcDbDictionary
280
     1
281
     1
  3
ACAD_XREC_ROUNDTRIP
360
2BCB
  0
DICTIONARY
  5
2BCC
330
12F8
100
AcDbDictionary
280
     1
281
     1
  3
ACAD_XREC_ROUNDTRIP
360
2BCD
  0
DICTIONARY
  5
2BCE
330
12F9
100
AcDbDictionary
280
     1
281
     1
  3
ACAD_XREC_ROUNDTRIP
360
2BCF
  0
DICTIONARY
  5
2BD6
330
12FD
100
AcDbDictionary
280
     1
281
     1
  3
ACAD_XREC_ROUNDTRIP
360
2BD7
  0
DICTIONARY
  5
2BF2
330
130B
100
AcDbDictionary
280
     1
281
     1
  3
ACAD_XREC_ROUNDTRIP
360
2BF3
  0
DICTIONARY
  5
2BE2
330
1303
100
AcDbDictionary
280
     1
281
     1
  3
ACAD_XREC_ROUNDTRIP
360
2BE3
  0
DICTIONARY
  5
2BF4
330
130C
100
AcDbDictionary
280
     1
281
     1
  3
ACAD_XREC_ROUNDTRIP
360
2BF5
  0
DICTIONARY
  5
2BDA
330
12FF
100
AcDbDictionary
280
     1
281
     1
  3
ACAD_XREC_ROUNDTRIP
360
2BDB
  0
DICTIONARY
  5
2BF0
330
130A
100
AcDbDictionary
280
     1
281
     1
  3
ACAD_XREC_ROUNDTRIP
360
2BF1
  0
DICTIONARY
  5
2BEE
330
1309
100
AcDbDictionary
280
     1
281
     1
  3
ACAD_XREC_ROUNDTRIP
360
2BEF
  0
DICTIONARY
  5
2BE8
330
1306
100
AcDbDictionary
280
     1
281
     1
  3
ACAD_XREC_ROUNDTRIP
360
2BE9
  0
DICTIONARY
  5
2BEA
330
1307
100
AcDbDictionary
280
     1
281
     1
  3
ACAD_XREC_ROUNDTRIP
360
2BEB
  0
DICTIONARY
  5
2BE0
330
1302
100
AcDbDictionary
280
     1
281
     1
  3
ACAD_XREC_ROUNDTRIP
360
2BE1
  0
DICTIONARY
  5
2BD4
330
12FC
100
AcDbDictionary
280
     1
281
     1
  3
ACAD_XREC_ROUNDTRIP
360
2BD5
  0
DICTIONARY
  5
2BEC
330
1308
100
AcDbDictionary
280
     1
281
     1
  3
ACAD_XREC_ROUNDTRIP
360
2BED
  0
ACDBASSOCACTION
  5
2B26
330
2B23
100
AcDbAssocAction
 90
        1
 90
        1
330
2B23
360
2B27
 90
        1
 90
        3
 90
        3
360
2B2A
360
2B2B
360
2B2C
  0
ACDBASSOCACTION
  5
2B74
330
2B23
100
AcDbAssocAction
 90
        1
 90
        1
330
2B23
360
2B75
 90
        2
 90
        3
 90
        3
360
2B78
360
2B79
360
2B7A
  0
XRECORD
  5
2BFE
102
{ACAD_REACTORS
330
2BFD
102
}
330
2BFD
100
AcDbXrecord
280
     1
102
DISPLAYNAME
  1
Metric50
102
FLAGS
 90
        0
  0
XRECORD
  5
2BC5
102
{ACAD_REACTORS
330
2BC4
102
}
330
2BC4
100
AcDbXrecord
280
     1
102
SHADEPLOT
 70
     0
102
SHADEPLOTRESLEVEL
 70
     2
102
SHADEPLOTCUSTOMDPI
 70
   300
  0
XRECORD
  5
2BC7
102
{ACAD_REACTORS
330
2BC6
102
}
330
2BC6
100
AcDbXrecord
280
     1
102
SHADEPLOT
 70
     0
102
SHADEPLOTRESLEVEL
 70
     2
102
SHADEPLOTCUSTOMDPI
 70
   300
  0
XRECORD
  5
2BC3
102
{ACAD_REACTORS
330
2BC2
102
}
330
2BC2
100
AcDbXrecord
280
     1
102
SHADEPLOT
 70
     0
102
SHADEPLOTRESLEVEL
 70
     2
102
SHADEPLOTCUSTOMDPI
 70
   300
  0
XRECORD
  5
2AAA
102
{ACAD_REACTORS
330
12E6
102
}
330
12E6
100
AcDbXrecord
280
     1
102
MATERIAL
148
0.0
149
0.0
149
0.0
 93
        0
 94
      127
282
     0
 72
     0
 77
     0
171
     0
175
     0
179
     0
273
     0
  0
XRECORD
  5
12E8
102
{ACAD_REACTORS
330
12E6
102
}
330
12E6
100
AcDbXrecord
280
     1
270
     1
271
     1
  0
XRECORD
  5
12E7
102
{ACAD_REACTORS
330
12E6
102
}
330
12E6
100
AcDbXrecord
280
     1
270
     1
271
     1
  0
XRECORD
  5
12EB
102
{ACAD_REACTORS
330
12E6
102
}
330
12E6
100
AcDbXrecord
280
     1
270
     1
271
     1
  0
XRECORD
  5
12EA
102
{ACAD_REACTORS
330
12E6
102
}
330
12E6
100
AcDbXrecord
280
     1
270
     1
271
     1
  0
XRECORD
  5
12EC
102
{ACAD_REACTORS
330
12E6
102
}
330
12E6
100
AcDbXrecord
280
     1
270
     1
271
     1
  0
XRECORD
  5
12E9
102
{ACAD_REACTORS
330
12E6
102
}
330
12E6
100
AcDbXrecord
280
     1
270
     1
271
     1
  0
XRECORD
  5
2AA9
102
{ACAD_REACTORS
330
12DE
102
}
330
12DE
100
AcDbXrecord
280
     1
102
MATERIAL
148
0.0
149
0.0
149
0.0
 93
        0
 94
      127
282
     0
 72
     0
 77
     0
171
     0
175
     0
179
     0
273
     0
  0
XRECORD
  5
12E0
102
{ACAD_REACTORS
330
12DE
102
}
330
12DE
100
AcDbXrecord
280
     1
270
     1
271
     1
  0
XRECORD
  5
12DF
102
{ACAD_REACTORS
330
12DE
102
}
330
12DE
100
AcDbXrecord
280
     1
270
     1
271
     1
  0
XRECORD
  5
12E3
102
{ACAD_REACTORS
330
12DE
102
}
330
12DE
100
AcDbXrecord
280
     1
270
     1
271
     1
  0
XRECORD
  5
12E2
102
{ACAD_REACTORS
330
12DE
102
}
330
12DE
100
AcDbXrecord
280
     1
270
     1
271
     1
  0
XRECORD
  5
12E4
102
{ACAD_REACTORS
330
12DE
102
}
330
12DE
100
AcDbXrecord
280
     1
270
     1
271
     1
  0
XRECORD
  5
12E1
102
{ACAD_REACTORS
330
12DE
102
}
330
12DE
100
AcDbXrecord
280
     1
270
     1
271
     1
  0
XRECORD
  5
2AAB
102
{ACAD_REACTORS
330
12EE
102
}
330
12EE
100
AcDbXrecord
280
     1
102
MATERIAL
148
0.0
149
0.0
149
0.0
 93
        0
 94
      127
282
     0
 72
     0
 77
     0
171
     0
175
     0
179
     0
273
     0
  0
XRECORD
  5
12F0
102
{ACAD_REACTORS
330
12EE
102
}
330
12EE
100
AcDbXrecord
280
     1
270
     1
271
     1
  0
XRECORD
  5
12EF
102
{ACAD_REACTORS
330
12EE
102
}
330
12EE
100
AcDbXrecord
280
     1
270
     1
271
     1
  0
XRECORD
  5
12F3
102
{ACAD_REACTORS
330
12EE
102
}
330
12EE
100
AcDbXrecord
280
     1
270
     1
271
     1
  0
XRECORD
  5
12F2
102
{ACAD_REACTORS
330
12EE
102
}
330
12EE
100
AcDbXrecord
280
     1
270
     1
271
     1
  0
XRECORD
  5
12F4
102
{ACAD_REACTORS
330
12EE
102
}
330
12EE
100
AcDbXrecord
280
     1
270
     1
271
     1
  0
XRECORD
  5
12F1
102
{ACAD_REACTORS
330
12EE
102
}
330
12EE
100
AcDbXrecord
280
     1
270
     1
271
     1
  0
XRECORD
  5
2BFA
102
{ACAD_REACTORS
330
2BF9
102
}
330
2BF9
100
AcDbXrecord
280
     1
102
ACAD_ROUNDTRIP_2012_MLEADER_STYLE
298
     1
  0
XRECORD
  5
2BFC
102
{ACAD_REACTORS
330
2BFB
102
}
330
2BFB
100
AcDbXrecord
280
     1
102
DISPLAYNAME
  1
Metric50
102
FLAGS
 90
        0
  0
CELLSTYLEMAP
  5
2BBF
102
{ACAD_REACTORS
330
1A19
102
}
330
1A19
100
AcDbCellStyleMap
 90
        3
300
CELLSTYLE
  1
TABLEFORMAT_BEGIN
 90
        5
170
     1
 91
        0
 92
    32768
 62
   257
 93
        1
300
CONTENTFORMAT
  1
CONTENTFORMAT_BEGIN
 90
        0
 91
        0
 92
      512
 93
        0
300

 40
0.0
140
1.0
 94
        5
 62
     0
340
9
144
6.0
309
CONTENTFORMAT_END
171
     1
301
MARGIN
  1
CELLMARGIN_BEGIN
 40
1.5
 40
1.5
 40
1.5
 40
1.5
 40
0.18
 40
0.18
309
CELLMARGIN_END
 94
        6
 95
        1
302
GRIDFORMAT
  1
GRIDFORMAT_BEGIN
 90
        0
 91
        1
 62
     0
 92
       -2
340
0
 93
        0
 40
1.125
309
GRIDFORMAT_END
 95
        2
302
GRIDFORMAT
  1
GRIDFORMAT_BEGIN
 90
        0
 91
        1
 62
     0
 92
       -2
340
0
 93
        0
 40
1.125
309
GRIDFORMAT_END
 95
        4
302
GRIDFORMAT
  1
GRIDFORMAT_BEGIN
 90
        0
 91
        1
 62
     0
 92
       -2
340
0
 93
        0
 40
1.125
309
GRIDFORMAT_END
 95
        8
302
GRIDFORMAT
  1
GRIDFORMAT_BEGIN
 90
        0
 91
        1
 62
     0
 92
       -2
340
0
 93
        0
 40
1.125
309
GRIDFORMAT_END
 95
       16
302
GRIDFORMAT
  1
GRIDFORMAT_BEGIN
 90
        0
 91
        1
 62
     0
 92
       -2
340
0
 93
        0
 40
1.125
309
GRIDFORMAT_END
 95
       32
302
GRIDFORMAT
  1
GRIDFORMAT_BEGIN
 90
        0
 91
        1
 62
     0
 92
       -2
340
0
 93
        0
 40
1.125
309
GRIDFORMAT_END
309
TABLEFORMAT_END
  1
CELLSTYLE_BEGIN
 90
        1
 91
        1
300
_TITLE
309
CELLSTYLE_END
300
CELLSTYLE
  1
TABLEFORMAT_BEGIN
 90
        5
170
     1
 91
        0
 92
        0
 62
   257
 93
        1
300
CONTENTFORMAT
  1
CONTENTFORMAT_BEGIN
 90
        0
 91
        0
 92
      512
 93
        0
300

 40
0.0
140
1.0
 94
        5
 62
     0
340
9
144
4.5
309
CONTENTFORMAT_END
171
     1
301
MARGIN
  1
CELLMARGIN_BEGIN
 40
1.5
 40
1.5
 40
1.5
 40
1.5
 40
0.18
 40
0.18
309
CELLMARGIN_END
 94
        6
 95
        1
302
GRIDFORMAT
  1
GRIDFORMAT_BEGIN
 90
        0
 91
        1
 62
     0
 92
       -2
340
0
 93
        0
 40
1.125
309
GRIDFORMAT_END
 95
        2
302
GRIDFORMAT
  1
GRIDFORMAT_BEGIN
 90
        0
 91
        1
 62
     0
 92
       -2
340
0
 93
        0
 40
1.125
309
GRIDFORMAT_END
 95
        4
302
GRIDFORMAT
  1
GRIDFORMAT_BEGIN
 90
        0
 91
        1
 62
     0
 92
       -2
340
0
 93
        0
 40
1.125
309
GRIDFORMAT_END
 95
        8
302
GRIDFORMAT
  1
GRIDFORMAT_BEGIN
 90
        0
 91
        1
 62
     0
 92
       -2
340
0
 93
        0
 40
1.125
309
GRIDFORMAT_END
 95
       16
302
GRIDFORMAT
  1
GRIDFORMAT_BEGIN
 90
        0
 91
        1
 62
     0
 92
       -2
340
0
 93
        0
 40
1.125
309
GRIDFORMAT_END
 95
       32
302
GRIDFORMAT
  1
GRIDFORMAT_BEGIN
 90
        0
 91
        1
 62
     0
 92
       -2
340
0
 93
        0
 40
1.125
309
GRIDFORMAT_END
309
TABLEFORMAT_END
  1
CELLSTYLE_BEGIN
 90
        2
 91
        1
300
_HEADER
309
CELLSTYLE_END
300
CELLSTYLE
  1
TABLEFORMAT_BEGIN
 90
        5
170
     1
 91
        0
 92
        0
 62
   257
 93
        1
300
CONTENTFORMAT
  1
CONTENTFORMAT_BEGIN
 90
        0
 91
        0
 92
      512
 93
        0
300

 40
0.0
140
1.0
 94
        2
 62
     0
340
9
144
4.5
309
CONTENTFORMAT_END
171
     1
301
MARGIN
  1
CELLMARGIN_BEGIN
 40
1.5
 40
1.5
 40
1.5
 40
1.5
 40
0.18
 40
0.18
309
CELLMARGIN_END
 94
        6
 95
        1
302
GRIDFORMAT
  1
GRIDFORMAT_BEGIN
 90
        0
 91
        1
 62
     0
 92
       -2
340
0
 93
        0
 40
1.125
309
GRIDFORMAT_END
 95
        2
302
GRIDFORMAT
  1
GRIDFORMAT_BEGIN
 90
        0
 91
        1
 62
     0
 92
       -2
340
0
 93
        0
 40
1.125
309
GRIDFORMAT_END
 95
        4
302
GRIDFORMAT
  1
GRIDFORMAT_BEGIN
 90
        0
 91
        1
 62
     0
 92
       -2
340
0
 93
        0
 40
1.125
309
GRIDFORMAT_END
 95
        8
302
GRIDFORMAT
  1
GRIDFORMAT_BEGIN
 90
        0
 91
        1
 62
     0
 92
       -2
340
0
 93
        0
 40
1.125
309
GRIDFORMAT_END
 95
       16
302
GRIDFORMAT
  1
GRIDFORMAT_BEGIN
 90
        0
 91
        1
 62
     0
 92
       -2
340
0
 93
        0
 40
1.125
309
GRIDFORMAT_END
 95
       32
302
GRIDFORMAT
  1
GRIDFORMAT_BEGIN
 90
        0
 91
        1
 62
     0
 92
       -2
340
0
 93
        0
 40
1.125
309
GRIDFORMAT_END
309
TABLEFORMAT_END
  1
CELLSTYLE_BEGIN
 90
        3
 91
        2
300
_DATA
309
CELLSTYLE_END
  0
XRECORD
  5
2BF8
102
{ACAD_REACTORS
330
1A19
102
}
330
1A19
100
AcDbXrecord
280
     1
102
ACAD_ROUNDTRIP_PRE2007_TABLESTYLE
 90
      512
 91
        0
  1

 92
      512
 93
        0
  2

 94
      512
 95
        0
  3

  0
XRECORD
  5
2BD3
102
{ACAD_REACTORS
330
2BD2
102
}
330
2BD2
100
AcDbXrecord
280
     1
102
RTVSPost2010Prop28
280
     1
102
RTVSPost2010PropOp28
 70
     1
102
RTVSPost2010Prop29
280
     1
102
RTVSPost2010PropOp29
 70
     1
102
RTVSPost2010Prop30
280
     0
102
RTVSPost2010PropOp30
 70
     1
102
RTVSPost2010Prop31
280
     0
102
RTVSPost2010PropOp31
 70
     1
102
RTVSPost2010Prop32
280
     0
102
RTVSPost2010PropOp32
 70
     1
102
RTVSPost2010Prop33
280
     0
102
RTVSPost2010PropOp33
 70
     1
102
RTVSPost2010Prop34
280
     0
102
RTVSPost2010PropOp34
 70
     1
102
RTVSPost2010Prop35
280
     0
102
RTVSPost2010PropOp35
 70
     1
102
RTVSPost2010Prop36
280
     0
102
RTVSPost2010PropOp36
 70
     1
102
RTVSPost2010Prop37
 90
       50
102
RTVSPost2010PropOp37
 70
     1
102
RTVSPost2010Prop38
140
0.0
102
RTVSPost2010PropOp38
 70
     1
102
RTVSPost2010Prop39
140
1.0
102
RTVSPost2010PropOp39
 70
     1
102
RTVSPost2010Prop40
 90
        0
102
RTVSPost2010PropOp40
 70
     1
102
RTVSPost2010Prop41ColorIndex
 90
       18
102
RTVSPost2010Prop41ColorRGB
 90
        0
102
RTVSPost2010PropOp41
 70
     1
102
RTVSPost2010Prop42
 90
       50
102
RTVSPost2010PropOp42
 70
     1
102
RTVSPost2010Prop43
 90
        3
102
RTVSPost2010PropOp43
 70
     1
102
RTVSPost2010Prop44ColorIndex
 90
        5
102
RTVSPost2010Prop44ColorRGB
 90
      255
102
RTVSPost2010PropOp44
 70
     1
102
RTVSPost2010Prop45
280
     0
102
RTVSPost2010PropOp45
 70
     1
102
RTVSPost2010Prop46
 90
       50
102
RTVSPost2010PropOp46
 70
     1
102
RTVSPost2010Prop47
 90
       50
102
RTVSPost2010PropOp47
 70
     1
102
RTVSPost2010Prop48
 90
       50
102
RTVSPost2010PropOp48
 70
     1
102
RTVSPost2010Prop49
280
     0
102
RTVSPost2010PropOp49
 70
     1
102
RTVSPost2010Prop50
 90
       50
102
RTVSPost2010PropOp50
 70
     1
102
RTVSPost2010Prop51ColorIndex
 90
      256
102
RTVSPost2010Prop51ColorRGB
 90
-16777216
102
RTVSPost2010PropOp51
 70
     0
102
RTVSPost2010Prop52
140
1.0
102
RTVSPost2010PropOp52
 70
     0
102
RTVSPost2010Prop53
 90
        2
102
RTVSPost2010PropOp53
 70
     1
102
RTVSPost2010Prop54
  1
strokes_ogs.tif
102
RTVSPost2010PropOp54
 70
     1
102
RTVSPost2010Prop55
280
     0
102
RTVSPost2010PropOp55
 70
     1
102
RTVSPost2010Prop56
140
1.0
102
RTVSPost2010PropOp56
 70
     1
102
RTVSPost2010Prop57
140
1.0
102
RTVSPost2010PropOp57
 70
     1
102
RTVSPropertyOp0
 70
     1
102
RTVSPropertyOp1
 70
     1
102
RTVSPropertyOp2
 70
     1
102
RTVSPropertyOp3
 70
     1
102
RTVSPropertyOp4
 70
     1
102
RTVSPropertyOp5
 70
     1
102
RTVSPropertyOp6
 70
     1
102
RTVSPropertyOp7
 70
     1
102
RTVSPropertyOp8
 70
     1
102
RTVSPropertyOp9
 70
     1
102
RTVSPropertyOp10
 70
     1
102
RTVSPropertyOp11
 70
     1
102
RTVSPropertyOp12
 70
     1
102
RTVSPropertyOp13
 70
     1
102
RTVSPropertyOp14
 70
     1
102
RTVSPropertyOp15
 70
     1
102
RTVSPropertyOp16
 70
     1
102
RTVSPropertyOp17
 70
     1
102
RTVSPropertyOp18
 70
     1
102
RTVSPropertyOp19
 70
     1
102
RTVSPropertyOp20
 70
     1
102
RTVSPropertyOp21
 70
     1
102
RTVSPropertyOp22
 70
     1
102
RTVSPropertyOp23
 70
     1
102
RTVSPropertyOp24
 70
     1
102
RTVSPropertyOp25
 70
     1
102
RTVSPropertyOp26
 70
     1
102
RTVSPropertyOp27
 70
     1
102
RTVSPropertyOp28
 70
     1
102
RTVSPropertyOp29
 70
     1
102
RTVSPropertyOp30
 70
     1
102
RTVSPropertyOp31
 70
     1
102
RTVSPropertyOp32
 70
     1
102
RTVSPropertyOp33
 70
     1
102
RTVSPropertyOp34
 70
     1
102
RTVSPropertyOp35
 70
     1
102
RTVSPropertyOp36
 70
     1
102
RTVSPropertyOp37
 70
     1
102
RTVSPropertyOp38
 70
     1
102
RTVSPropertyOp39
 70
     1
102
RTVSPropertyOp40
 70
     1
102
RTVSPropertyOp41
 70
     1
102
RTVSPropertyOp42
 70
     1
102
RTVSPropertyOp43
 70
     1
102
RTVSPropertyOp44
 70
     1
102
RTVSPropertyOp45
 70
     1
102
RTVSPropertyOp46
 70
     1
102
RTVSPropertyOp47
 70
     1
102
RTVSPropertyOp48
 70
     1
102
RTVSPropertyOp49
 70
     1
102
RTVSPropertyOp50
 70
     1
102
RTVSPropertyOp51
 70
     0
102
RTVSPropertyOp52
 70
     0
102
RTVSPropertyOp53
 70
     1
102
RTVSPropertyOp54
 70
     1
102
RTVSPropertyOp55
 70
     1
102
RTVSPropertyOp56
 70
     1
102
RTVSPropertyOp57
 70
     1
102
RTVSPropertyOp58
 70
     1
102
RTVSPropertyOp59
 70
     1
102
RTVSPropertyOp60
 70
     1
102
RTVSPropertyOp61
 70
     1
102
RTVSPropertyOp62
 70
     1
  0
XRECORD
  5
2BD1
102
{ACAD_REACTORS
330
2BD0
102
}
330
2BD0
100
AcDbXrecord
280
     1
102
RTVSPost2010Prop28
280
     0
102
RTVSPost2010PropOp28
 70
     1
102
RTVSPost2010Prop29
280
     1
102
RTVSPost2010PropOp29
 70
     1
102
RTVSPost2010Prop30
280
     1
102
RTVSPost2010PropOp30
 70
     1
102
RTVSPost2010Prop31
280
     0
102
RTVSPost2010PropOp31
 70
     1
102
RTVSPost2010Prop32
280
     0
102
RTVSPost2010PropOp32
 70
     1
102
RTVSPost2010Prop33
280
     0
102
RTVSPost2010PropOp33
 70
     1
102
RTVSPost2010Prop34
280
     0
102
RTVSPost2010PropOp34
 70
     1
102
RTVSPost2010Prop35
280
     0
102
RTVSPost2010PropOp35
 70
     1
102
RTVSPost2010Prop36
280
     0
102
RTVSPost2010PropOp36
 70
     1
102
RTVSPost2010Prop37
 90
       50
102
RTVSPost2010PropOp37
 70
     1
102
RTVSPost2010Prop38
140
0.0
102
RTVSPost2010PropOp38
 70
     1
102
RTVSPost2010Prop39
140
1.0
102
RTVSPost2010PropOp39
 70
     1
102
RTVSPost2010Prop40
 90
        0
102
RTVSPost2010PropOp40
 70
     1
102
RTVSPost2010Prop41ColorIndex
 90
       18
102
RTVSPost2010Prop41ColorRGB
 90
        0
102
RTVSPost2010PropOp41
 70
     1
102
RTVSPost2010Prop42
 90
       50
102
RTVSPost2010PropOp42
 70
     1
102
RTVSPost2010Prop43
 90
        3
102
RTVSPost2010PropOp43
 70
     1
102
RTVSPost2010Prop44ColorIndex
 90
        5
102
RTVSPost2010Prop44ColorRGB
 90
      255
102
RTVSPost2010PropOp44
 70
     1
102
RTVSPost2010Prop45
280
     0
102
RTVSPost2010PropOp45
 70
     1
102
RTVSPost2010Prop46
 90
       50
102
RTVSPost2010PropOp46
 70
     1
102
RTVSPost2010Prop47
 90
       50
102
RTVSPost2010PropOp47
 70
     1
102
RTVSPost2010Prop48
 90
       50
102
RTVSPost2010PropOp48
 70
     1
102
RTVSPost2010Prop49
280
     0
102
RTVSPost2010PropOp49
 70
     1
102
RTVSPost2010Prop50
 90
       50
102
RTVSPost2010PropOp50
 70
     1
102
RTVSPost2010Prop51ColorIndex
 90
      256
102
RTVSPost2010Prop51ColorRGB
 90
-16777216
102
RTVSPost2010PropOp51
 70
     0
102
RTVSPost2010Prop52
140
1.0
102
RTVSPost2010PropOp52
 70
     0
102
RTVSPost2010Prop53
 90
        2
102
RTVSPost2010PropOp53
 70
     1
102
RTVSPost2010Prop54
  1
strokes_ogs.tif
102
RTVSPost2010PropOp54
 70
     1
102
RTVSPost2010Prop55
280
     0
102
RTVSPost2010PropOp55
 70
     1
102
RTVSPost2010Prop56
140
1.0
102
RTVSPost2010PropOp56
 70
     1
102
RTVSPost2010Prop57
140
1.0
102
RTVSPost2010PropOp57
 70
     1
102
RTVSPropertyOp0
 70
     1
102
RTVSPropertyOp1
 70
     1
102
RTVSPropertyOp2
 70
     1
102
RTVSPropertyOp3
 70
     1
102
RTVSPropertyOp4
 70
     1
102
RTVSPropertyOp5
 70
     1
102
RTVSPropertyOp6
 70
     1
102
RTVSPropertyOp7
 70
     1
102
RTVSPropertyOp8
 70
     1
102
RTVSPropertyOp9
 70
     1
102
RTVSPropertyOp10
 70
     1
102
RTVSPropertyOp11
 70
     1
102
RTVSPropertyOp12
 70
     1
102
RTVSPropertyOp13
 70
     1
102
RTVSPropertyOp14
 70
     1
102
RTVSPropertyOp15
 70
     1
102
RTVSPropertyOp16
 70
     1
102
RTVSPropertyOp17
 70
     1
102
RTVSPropertyOp18
 70
     1
102
RTVSPropertyOp19
 70
     1
102
RTVSPropertyOp20
 70
     1
102
RTVSPropertyOp21
 70
     1
102
RTVSPropertyOp22
 70
     1
102
RTVSPropertyOp23
 70
     1
102
RTVSPropertyOp24
 70
     1
102
RTVSPropertyOp25
 70
     1
102
RTVSPropertyOp26
 70
     1
102
RTVSPropertyOp27
 70
     1
102
RTVSPropertyOp28
 70
     1
102
RTVSPropertyOp29
 70
     1
102
RTVSPropertyOp30
 70
     1
102
RTVSPropertyOp31
 70
     1
102
RTVSPropertyOp32
 70
     1
102
RTVSPropertyOp33
 70
     1
102
RTVSPropertyOp34
 70
     1
102
RTVSPropertyOp35
 70
     1
102
RTVSPropertyOp36
 70
     1
102
RTVSPropertyOp37
 70
     1
102
RTVSPropertyOp38
 70
     1
102
RTVSPropertyOp39
 70
     1
102
RTVSPropertyOp40
 70
     1
102
RTVSPropertyOp41
 70
     1
102
RTVSPropertyOp42
 70
     1
102
RTVSPropertyOp43
 70
     1
102
RTVSPropertyOp44
 70
     1
102
RTVSPropertyOp45
 70
     1
102
RTVSPropertyOp46
 70
     1
102
RTVSPropertyOp47
 70
     1
102
RTVSPropertyOp48
 70
     1
102
RTVSPropertyOp49
 70
     1
102
RTVSPropertyOp50
 70
     1
102
RTVSPropertyOp51
 70
     0
102
RTVSPropertyOp52
 70
     0
102
RTVSPropertyOp53
 70
     1
102
RTVSPropertyOp54
 70
     1
102
RTVSPropertyOp55
 70
     1
102
RTVSPropertyOp56
 70
     1
102
RTVSPropertyOp57
 70
     1
102
RTVSPropertyOp58
 70
     1
102
RTVSPropertyOp59
 70
     1
102
RTVSPropertyOp60
 70
     1
102
RTVSPropertyOp61
 70
     1
102
RTVSPropertyOp62
 70
     1
  0
XRECORD
  5
2BDF
102
{ACAD_REACTORS
330
2BDE
102
}
330
2BDE
100
AcDbXrecord
280
     1
102
RTVSPost2010Prop28
280
     0
102
RTVSPost2010PropOp28
 70
     1
102
RTVSPost2010Prop29
280
     1
102
RTVSPost2010PropOp29
 70
     1
102
RTVSPost2010Prop30
280
     1
102
RTVSPost2010PropOp30
 70
     1
102
RTVSPost2010Prop31
280
     0
102
RTVSPost2010PropOp31
 70
     1
102
RTVSPost2010Prop32
280
     0
102
RTVSPost2010PropOp32
 70
     1
102
RTVSPost2010Prop33
280
     0
102
RTVSPost2010PropOp33
 70
     1
102
RTVSPost2010Prop34
280
     0
102
RTVSPost2010PropOp34
 70
     1
102
RTVSPost2010Prop35
280
     0
102
RTVSPost2010PropOp35
 70
     1
102
RTVSPost2010Prop36
280
     0
102
RTVSPost2010PropOp36
 70
     1
102
RTVSPost2010Prop37
 90
       50
102
RTVSPost2010PropOp37
 70
     1
102
RTVSPost2010Prop38
140
0.0
102
RTVSPost2010PropOp38
 70
     1
102
RTVSPost2010Prop39
140
1.0
102
RTVSPost2010PropOp39
 70
     1
102
RTVSPost2010Prop40
 90
        0
102
RTVSPost2010PropOp40
 70
     1
102
RTVSPost2010Prop41ColorIndex
 90
       18
102
RTVSPost2010Prop41ColorRGB
 90
        0
102
RTVSPost2010PropOp41
 70
     1
102
RTVSPost2010Prop42
 90
       50
102
RTVSPost2010PropOp42
 70
     1
102
RTVSPost2010Prop43
 90
        3
102
RTVSPost2010PropOp43
 70
     1
102
RTVSPost2010Prop44ColorIndex
 90
        5
102
RTVSPost2010Prop44ColorRGB
 90
      255
102
RTVSPost2010PropOp44
 70
     1
102
RTVSPost2010Prop45
280
     0
102
RTVSPost2010PropOp45
 70
     1
102
RTVSPost2010Prop46
 90
       50
102
RTVSPost2010PropOp46
 70
     1
102
RTVSPost2010Prop47
 90
       50
102
RTVSPost2010PropOp47
 70
     1
102
RTVSPost2010Prop48
 90
       50
102
RTVSPost2010PropOp48
 70
     1
102
RTVSPost2010Prop49
280
     0
102
RTVSPost2010PropOp49
 70
     1
102
RTVSPost2010Prop50
 90
       50
102
RTVSPost2010PropOp50
 70
     1
102
RTVSPost2010Prop51ColorIndex
 90
      256
102
RTVSPost2010Prop51ColorRGB
 90
-16777216
102
RTVSPost2010PropOp51
 70
     0
102
RTVSPost2010Prop52
140
1.0
102
RTVSPost2010PropOp52
 70
     0
102
RTVSPost2010Prop53
 90
        2
102
RTVSPost2010PropOp53
 70
     1
102
RTVSPost2010Prop54
  1
strokes_ogs.tif
102
RTVSPost2010PropOp54
 70
     1
102
RTVSPost2010Prop55
280
     0
102
RTVSPost2010PropOp55
 70
     1
102
RTVSPost2010Prop56
140
1.0
102
RTVSPost2010PropOp56
 70
     1
102
RTVSPost2010Prop57
140
1.0
102
RTVSPost2010PropOp57
 70
     1
102
RTVSPropertyOp0
 70
     1
102
RTVSPropertyOp1
 70
     1
102
RTVSPropertyOp2
 70
     1
102
RTVSPropertyOp3
 70
     1
102
RTVSPropertyOp4
 70
     1
102
RTVSPropertyOp5
 70
     1
102
RTVSPropertyOp6
 70
     1
102
RTVSPropertyOp7
 70
     1
102
RTVSPropertyOp8
 70
     1
102
RTVSPropertyOp9
 70
     1
102
RTVSPropertyOp10
 70
     1
102
RTVSPropertyOp11
 70
     1
102
RTVSPropertyOp12
 70
     1
102
RTVSPropertyOp13
 70
     1
102
RTVSPropertyOp14
 70
     1
102
RTVSPropertyOp15
 70
     1
102
RTVSPropertyOp16
 70
     1
102
RTVSPropertyOp17
 70
     1
102
RTVSPropertyOp18
 70
     1
102
RTVSPropertyOp19
 70
     1
102
RTVSPropertyOp20
 70
     1
102
RTVSPropertyOp21
 70
     1
102
RTVSPropertyOp22
 70
     1
102
RTVSPropertyOp23
 70
     1
102
RTVSPropertyOp24
 70
     1
102
RTVSPropertyOp25
 70
     1
102
RTVSPropertyOp26
 70
     1
102
RTVSPropertyOp27
 70
     1
102
RTVSPropertyOp28
 70
     1
102
RTVSPropertyOp29
 70
     1
102
RTVSPropertyOp30
 70
     1
102
RTVSPropertyOp31
 70
     1
102
RTVSPropertyOp32
 70
     1
102
RTVSPropertyOp33
 70
     1
102
RTVSPropertyOp34
 70
     1
102
RTVSPropertyOp35
 70
     1
102
RTVSPropertyOp36
 70
     1
102
RTVSPropertyOp37
 70
     1
102
RTVSPropertyOp38
 70
     1
102
RTVSPropertyOp39
 70
     1
102
RTVSPropertyOp40
 70
     1
102
RTVSPropertyOp41
 70
     1
102
RTVSPropertyOp42
 70
     1
102
RTVSPropertyOp43
 70
     1
102
RTVSPropertyOp44
 70
     1
102
RTVSPropertyOp45
 70
     1
102
RTVSPropertyOp46
 70
     1
102
RTVSPropertyOp47
 70
     1
102
RTVSPropertyOp48
 70
     1
102
RTVSPropertyOp49
 70
     1
102
RTVSPropertyOp50
 70
     1
102
RTVSPropertyOp51
 70
     0
102
RTVSPropertyOp52
 70
     0
102
RTVSPropertyOp53
 70
     1
102
RTVSPropertyOp54
 70
     1
102
RTVSPropertyOp55
 70
     1
102
RTVSPropertyOp56
 70
     1
102
RTVSPropertyOp57
 70
     1
102
RTVSPropertyOp58
 70
     1
102
RTVSPropertyOp59
 70
     1
102
RTVSPropertyOp60
 70
     1
102
RTVSPropertyOp61
 70
     1
102
RTVSPropertyOp62
 70
     1
  0
XRECORD
  5
2BE7
102
{ACAD_REACTORS
330
2BE6
102
}
330
2BE6
100
AcDbXrecord
280
     1
102
RTVSPost2010Prop28
280
     0
102
RTVSPost2010PropOp28
 70
     1
102
RTVSPost2010Prop29
280
     1
102
RTVSPost2010PropOp29
 70
     1
102
RTVSPost2010Prop30
280
     1
102
RTVSPost2010PropOp30
 70
     1
102
RTVSPost2010Prop31
280
     0
102
RTVSPost2010PropOp31
 70
     1
102
RTVSPost2010Prop32
280
     0
102
RTVSPost2010PropOp32
 70
     1
102
RTVSPost2010Prop33
280
     0
102
RTVSPost2010PropOp33
 70
     1
102
RTVSPost2010Prop34
280
     0
102
RTVSPost2010PropOp34
 70
     1
102
RTVSPost2010Prop35
280
     0
102
RTVSPost2010PropOp35
 70
     1
102
RTVSPost2010Prop36
280
     0
102
RTVSPost2010PropOp36
 70
     1
102
RTVSPost2010Prop37
 90
       50
102
RTVSPost2010PropOp37
 70
     1
102
RTVSPost2010Prop38
140
0.0
102
RTVSPost2010PropOp38
 70
     1
102
RTVSPost2010Prop39
140
1.0
102
RTVSPost2010PropOp39
 70
     1
102
RTVSPost2010Prop40
 90
        0
102
RTVSPost2010PropOp40
 70
     1
102
RTVSPost2010Prop41ColorIndex
 90
       18
102
RTVSPost2010Prop41ColorRGB
 90
        0
102
RTVSPost2010PropOp41
 70
     1
102
RTVSPost2010Prop42
 90
       50
102
RTVSPost2010PropOp42
 70
     1
102
RTVSPost2010Prop43
 90
        3
102
RTVSPost2010PropOp43
 70
     1
102
RTVSPost2010Prop44ColorIndex
 90
        5
102
RTVSPost2010Prop44ColorRGB
 90
      255
102
RTVSPost2010PropOp44
 70
     1
102
RTVSPost2010Prop45
280
     0
102
RTVSPost2010PropOp45
 70
     1
102
RTVSPost2010Prop46
 90
       50
102
RTVSPost2010PropOp46
 70
     1
102
RTVSPost2010Prop47
 90
       50
102
RTVSPost2010PropOp47
 70
     1
102
RTVSPost2010Prop48
 90
       50
102
RTVSPost2010PropOp48
 70
     1
102
RTVSPost2010Prop49
280
     0
102
RTVSPost2010PropOp49
 70
     1
102
RTVSPost2010Prop50
 90
       50
102
RTVSPost2010PropOp50
 70
     1
102
RTVSPost2010Prop51ColorIndex
 90
      256
102
RTVSPost2010Prop51ColorRGB
 90
-16777216
102
RTVSPost2010PropOp51
 70
     0
102
RTVSPost2010Prop52
140
1.0
102
RTVSPost2010PropOp52
 70
     0
102
RTVSPost2010Prop53
 90
        2
102
RTVSPost2010PropOp53
 70
     1
102
RTVSPost2010Prop54
  1
strokes_ogs.tif
102
RTVSPost2010PropOp54
 70
     1
102
RTVSPost2010Prop55
280
     0
102
RTVSPost2010PropOp55
 70
     1
102
RTVSPost2010Prop56
140
1.0
102
RTVSPost2010PropOp56
 70
     1
102
RTVSPost2010Prop57
140
1.0
102
RTVSPost2010PropOp57
 70
     1
102
RTVSPropertyOp0
 70
     1
102
RTVSPropertyOp1
 70
     1
102
RTVSPropertyOp2
 70
     1
102
RTVSPropertyOp3
 70
     1
102
RTVSPropertyOp4
 70
     1
102
RTVSPropertyOp5
 70
     1
102
RTVSPropertyOp6
 70
     1
102
RTVSPropertyOp7
 70
     1
102
RTVSPropertyOp8
 70
     1
102
RTVSPropertyOp9
 70
     1
102
RTVSPropertyOp10
 70
     1
102
RTVSPropertyOp11
 70
     1
102
RTVSPropertyOp12
 70
     1
102
RTVSPropertyOp13
 70
     1
102
RTVSPropertyOp14
 70
     1
102
RTVSPropertyOp15
 70
     1
102
RTVSPropertyOp16
 70
     1
102
RTVSPropertyOp17
 70
     1
102
RTVSPropertyOp18
 70
     1
102
RTVSPropertyOp19
 70
     1
102
RTVSPropertyOp20
 70
     1
102
RTVSPropertyOp21
 70
     1
102
RTVSPropertyOp22
 70
     1
102
RTVSPropertyOp23
 70
     1
102
RTVSPropertyOp24
 70
     1
102
RTVSPropertyOp25
 70
     1
102
RTVSPropertyOp26
 70
     1
102
RTVSPropertyOp27
 70
     1
102
RTVSPropertyOp28
 70
     1
102
RTVSPropertyOp29
 70
     1
102
RTVSPropertyOp30
 70
     1
102
RTVSPropertyOp31
 70
     1
102
RTVSPropertyOp32
 70
     1
102
RTVSPropertyOp33
 70
     1
102
RTVSPropertyOp34
 70
     1
102
RTVSPropertyOp35
 70
     1
102
RTVSPropertyOp36
 70
     1
102
RTVSPropertyOp37
 70
     1
102
RTVSPropertyOp38
 70
     1
102
RTVSPropertyOp39
 70
     1
102
RTVSPropertyOp40
 70
     1
102
RTVSPropertyOp41
 70
     1
102
RTVSPropertyOp42
 70
     1
102
RTVSPropertyOp43
 70
     1
102
RTVSPropertyOp44
 70
     1
102
RTVSPropertyOp45
 70
     1
102
RTVSPropertyOp46
 70
     1
102
RTVSPropertyOp47
 70
     1
102
RTVSPropertyOp48
 70
     1
102
RTVSPropertyOp49
 70
     1
102
RTVSPropertyOp50
 70
     1
102
RTVSPropertyOp51
 70
     0
102
RTVSPropertyOp52
 70
     0
102
RTVSPropertyOp53
 70
     1
102
RTVSPropertyOp54
 70
     1
102
RTVSPropertyOp55
 70
     1
102
RTVSPropertyOp56
 70
     1
102
RTVSPropertyOp57
 70
     1
102
RTVSPropertyOp58
 70
     1
102
RTVSPropertyOp59
 70
     1
102
RTVSPropertyOp60
 70
     1
102
RTVSPropertyOp61
 70
     1
102
RTVSPropertyOp62
 70
     1
  0
XRECORD
  5
2BD9
102
{ACAD_REACTORS
330
2BD8
102
}
330
2BD8
100
AcDbXrecord
280
     1
102
RTVSPost2010Prop28
280
     0
102
RTVSPost2010PropOp28
 70
     1
102
RTVSPost2010Prop29
280
     1
102
RTVSPost2010PropOp29
 70
     1
102
RTVSPost2010Prop30
280
     1
102
RTVSPost2010PropOp30
 70
     1
102
RTVSPost2010Prop31
280
     0
102
RTVSPost2010PropOp31
 70
     1
102
RTVSPost2010Prop32
280
     0
102
RTVSPost2010PropOp32
 70
     1
102
RTVSPost2010Prop33
280
     0
102
RTVSPost2010PropOp33
 70
     1
102
RTVSPost2010Prop34
280
     0
102
RTVSPost2010PropOp34
 70
     1
102
RTVSPost2010Prop35
280
     0
102
RTVSPost2010PropOp35
 70
     1
102
RTVSPost2010Prop36
280
     0
102
RTVSPost2010PropOp36
 70
     1
102
RTVSPost2010Prop37
 90
       50
102
RTVSPost2010PropOp37
 70
     1
102
RTVSPost2010Prop38
140
0.0
102
RTVSPost2010PropOp38
 70
     1
102
RTVSPost2010Prop39
140
1.0
102
RTVSPost2010PropOp39
 70
     1
102
RTVSPost2010Prop40
 90
        0
102
RTVSPost2010PropOp40
 70
     1
102
RTVSPost2010Prop41ColorIndex
 90
       18
102
RTVSPost2010Prop41ColorRGB
 90
        0
102
RTVSPost2010PropOp41
 70
     1
102
RTVSPost2010Prop42
 90
       50
102
RTVSPost2010PropOp42
 70
     1
102
RTVSPost2010Prop43
 90
        3
102
RTVSPost2010PropOp43
 70
     1
102
RTVSPost2010Prop44ColorIndex
 90
        5
102
RTVSPost2010Prop44ColorRGB
 90
      255
102
RTVSPost2010PropOp44
 70
     1
102
RTVSPost2010Prop45
280
     0
102
RTVSPost2010PropOp45
 70
     1
102
RTVSPost2010Prop46
 90
       50
102
RTVSPost2010PropOp46
 70
     1
102
RTVSPost2010Prop47
 90
       50
102
RTVSPost2010PropOp47
 70
     1
102
RTVSPost2010Prop48
 90
       50
102
RTVSPost2010PropOp48
 70
     1
102
RTVSPost2010Prop49
280
     0
102
RTVSPost2010PropOp49
 70
     1
102
RTVSPost2010Prop50
 90
       50
102
RTVSPost2010PropOp50
 70
     1
102
RTVSPost2010Prop51ColorIndex
 90
      256
102
RTVSPost2010Prop51ColorRGB
 90
-16777216
102
RTVSPost2010PropOp51
 70
     0
102
RTVSPost2010Prop52
140
1.0
102
RTVSPost2010PropOp52
 70
     0
102
RTVSPost2010Prop53
 90
        2
102
RTVSPost2010PropOp53
 70
     1
102
RTVSPost2010Prop54
  1
strokes_ogs.tif
102
RTVSPost2010PropOp54
 70
     1
102
RTVSPost2010Prop55
280
     0
102
RTVSPost2010PropOp55
 70
     1
102
RTVSPost2010Prop56
140
1.0
102
RTVSPost2010PropOp56
 70
     1
102
RTVSPost2010Prop57
140
1.0
102
RTVSPost2010PropOp57
 70
     1
102
RTVSPropertyOp0
 70
     1
102
RTVSPropertyOp1
 70
     1
102
RTVSPropertyOp2
 70
     1
102
RTVSPropertyOp3
 70
     1
102
RTVSPropertyOp4
 70
     1
102
RTVSPropertyOp5
 70
     1
102
RTVSPropertyOp6
 70
     1
102
RTVSPropertyOp7
 70
     1
102
RTVSPropertyOp8
 70
     1
102
RTVSPropertyOp9
 70
     1
102
RTVSPropertyOp10
 70
     1
102
RTVSPropertyOp11
 70
     1
102
RTVSPropertyOp12
 70
     1
102
RTVSPropertyOp13
 70
     1
102
RTVSPropertyOp14
 70
     1
102
RTVSPropertyOp15
 70
     1
102
RTVSPropertyOp16
 70
     1
102
RTVSPropertyOp17
 70
     1
102
RTVSPropertyOp18
 70
     1
102
RTVSPropertyOp19
 70
     1
102
RTVSPropertyOp20
 70
     1
102
RTVSPropertyOp21
 70
     1
102
RTVSPropertyOp22
 70
     1
102
RTVSPropertyOp23
 70
     1
102
RTVSPropertyOp24
 70
     1
102
RTVSPropertyOp25
 70
     1
102
RTVSPropertyOp26
 70
     1
102
RTVSPropertyOp27
 70
     1
102
RTVSPropertyOp28
 70
     1
102
RTVSPropertyOp29
 70
     1
102
RTVSPropertyOp30
 70
     1
102
RTVSPropertyOp31
 70
     1
102
RTVSPropertyOp32
 70
     1
102
RTVSPropertyOp33
 70
     1
102
RTVSPropertyOp34
 70
     1
102
RTVSPropertyOp35
 70
     1
102
RTVSPropertyOp36
 70
     1
102
RTVSPropertyOp37
 70
     1
102
RTVSPropertyOp38
 70
     1
102
RTVSPropertyOp39
 70
     1
102
RTVSPropertyOp40
 70
     1
102
RTVSPropertyOp41
 70
     1
102
RTVSPropertyOp42
 70
     1
102
RTVSPropertyOp43
 70
     1
102
RTVSPropertyOp44
 70
     1
102
RTVSPropertyOp45
 70
     1
102
RTVSPropertyOp46
 70
     1
102
RTVSPropertyOp47
 70
     1
102
RTVSPropertyOp48
 70
     1
102
RTVSPropertyOp49
 70
     1
102
RTVSPropertyOp50
 70
     1
102
RTVSPropertyOp51
 70
     0
102
RTVSPropertyOp52
 70
     0
102
RTVSPropertyOp53
 70
     1
102
RTVSPropertyOp54
 70
     1
102
RTVSPropertyOp55
 70
     1
102
RTVSPropertyOp56
 70
     1
102
RTVSPropertyOp57
 70
     1
102
RTVSPropertyOp58
 70
     1
102
RTVSPropertyOp59
 70
     1
102
RTVSPropertyOp60
 70
     1
102
RTVSPropertyOp61
 70
     1
102
RTVSPropertyOp62
 70
     1
  0
XRECORD
  5
2BDD
102
{ACAD_REACTORS
330
2BDC
102
}
330
2BDC
100
AcDbXrecord
280
     1
102
RTVSPost2010Prop28
280
     0
102
RTVSPost2010PropOp28
 70
     1
102
RTVSPost2010Prop29
280
     1
102
RTVSPost2010PropOp29
 70
     1
102
RTVSPost2010Prop30
280
     1
102
RTVSPost2010PropOp30
 70
     1
102
RTVSPost2010Prop31
280
     0
102
RTVSPost2010PropOp31
 70
     1
102
RTVSPost2010Prop32
280
     0
102
RTVSPost2010PropOp32
 70
     1
102
RTVSPost2010Prop33
280
     0
102
RTVSPost2010PropOp33
 70
     1
102
RTVSPost2010Prop34
280
     0
102
RTVSPost2010PropOp34
 70
     1
102
RTVSPost2010Prop35
280
     0
102
RTVSPost2010PropOp35
 70
     1
102
RTVSPost2010Prop36
280
     0
102
RTVSPost2010PropOp36
 70
     1
102
RTVSPost2010Prop37
 90
       50
102
RTVSPost2010PropOp37
 70
     1
102
RTVSPost2010Prop38
140
0.0
102
RTVSPost2010PropOp38
 70
     1
102
RTVSPost2010Prop39
140
1.0
102
RTVSPost2010PropOp39
 70
     1
102
RTVSPost2010Prop40
 90
        0
102
RTVSPost2010PropOp40
 70
     1
102
RTVSPost2010Prop41ColorIndex
 90
       18
102
RTVSPost2010Prop41ColorRGB
 90
        0
102
RTVSPost2010PropOp41
 70
     1
102
RTVSPost2010Prop42
 90
       50
102
RTVSPost2010PropOp42
 70
     1
102
RTVSPost2010Prop43
 90
        3
102
RTVSPost2010PropOp43
 70
     1
102
RTVSPost2010Prop44ColorIndex
 90
        5
102
RTVSPost2010Prop44ColorRGB
 90
      255
102
RTVSPost2010PropOp44
 70
     1
102
RTVSPost2010Prop45
280
     0
102
RTVSPost2010PropOp45
 70
     1
102
RTVSPost2010Prop46
 90
       50
102
RTVSPost2010PropOp46
 70
     1
102
RTVSPost2010Prop47
 90
       50
102
RTVSPost2010PropOp47
 70
     1
102
RTVSPost2010Prop48
 90
       50
102
RTVSPost2010PropOp48
 70
     1
102
RTVSPost2010Prop49
280
     0
102
RTVSPost2010PropOp49
 70
     1
102
RTVSPost2010Prop50
 90
       50
102
RTVSPost2010PropOp50
 70
     1
102
RTVSPost2010Prop51ColorIndex
 90
      256
102
RTVSPost2010Prop51ColorRGB
 90
-16777216
102
RTVSPost2010PropOp51
 70
     0
102
RTVSPost2010Prop52
140
1.0
102
RTVSPost2010PropOp52
 70
     0
102
RTVSPost2010Prop53
 90
        2
102
RTVSPost2010PropOp53
 70
     1
102
RTVSPost2010Prop54
  1
strokes_ogs.tif
102
RTVSPost2010PropOp54
 70
     1
102
RTVSPost2010Prop55
280
     0
102
RTVSPost2010PropOp55
 70
     1
102
RTVSPost2010Prop56
140
1.0
102
RTVSPost2010PropOp56
 70
     1
102
RTVSPost2010Prop57
140
1.0
102
RTVSPost2010PropOp57
 70
     1
102
RTVSPropertyOp0
 70
     1
102
RTVSPropertyOp1
 70
     1
102
RTVSPropertyOp2
 70
     1
102
RTVSPropertyOp3
 70
     1
102
RTVSPropertyOp4
 70
     1
102
RTVSPropertyOp5
 70
     1
102
RTVSPropertyOp6
 70
     1
102
RTVSPropertyOp7
 70
     1
102
RTVSPropertyOp8
 70
     1
102
RTVSPropertyOp9
 70
     1
102
RTVSPropertyOp10
 70
     1
102
RTVSPropertyOp11
 70
     1
102
RTVSPropertyOp12
 70
     1
102
RTVSPropertyOp13
 70
     1
102
RTVSPropertyOp14
 70
     1
102
RTVSPropertyOp15
 70
     1
102
RTVSPropertyOp16
 70
     1
102
RTVSPropertyOp17
 70
     1
102
RTVSPropertyOp18
 70
     1
102
RTVSPropertyOp19
 70
     1
102
RTVSPropertyOp20
 70
     1
102
RTVSPropertyOp21
 70
     1
102
RTVSPropertyOp22
 70
     1
102
RTVSPropertyOp23
 70
     1
102
RTVSPropertyOp24
 70
     1
102
RTVSPropertyOp25
 70
     1
102
RTVSPropertyOp26
 70
     1
102
RTVSPropertyOp27
 70
     1
102
RTVSPropertyOp28
 70
     1
102
RTVSPropertyOp29
 70
     1
102
RTVSPropertyOp30
 70
     1
102
RTVSPropertyOp31
 70
     1
102
RTVSPropertyOp32
 70
     1
102
RTVSPropertyOp33
 70
     1
102
RTVSPropertyOp34
 70
     1
102
RTVSPropertyOp35
 70
     1
102
RTVSPropertyOp36
 70
     1
102
RTVSPropertyOp37
 70
     1
102
RTVSPropertyOp38
 70
     1
102
RTVSPropertyOp39
 70
     1
102
RTVSPropertyOp40
 70
     1
102
RTVSPropertyOp41
 70
     1
102
RTVSPropertyOp42
 70
     1
102
RTVSPropertyOp43
 70
     1
102
RTVSPropertyOp44
 70
     1
102
RTVSPropertyOp45
 70
     1
102
RTVSPropertyOp46
 70
     1
102
RTVSPropertyOp47
 70
     1
102
RTVSPropertyOp48
 70
     1
102
RTVSPropertyOp49
 70
     1
102
RTVSPropertyOp50
 70
     1
102
RTVSPropertyOp51
 70
     0
102
RTVSPropertyOp52
 70
     0
102
RTVSPropertyOp53
 70
     1
102
RTVSPropertyOp54
 70
     1
102
RTVSPropertyOp55
 70
     1
102
RTVSPropertyOp56
 70
     1
102
RTVSPropertyOp57
 70
     1
102
RTVSPropertyOp58
 70
     1
102
RTVSPropertyOp59
 70
     1
102
RTVSPropertyOp60
 70
     1
102
RTVSPropertyOp61
 70
     1
102
RTVSPropertyOp62
 70
     1
  0
XRECORD
  5
2BF7
102
{ACAD_REACTORS
330
2BF6
102
}
330
2BF6
100
AcDbXrecord
280
     1
102
RTVSPost2010Prop28
280
     0
102
RTVSPost2010PropOp28
 70
     0
102
RTVSPost2010Prop29
280
     1
102
RTVSPost2010PropOp29
 70
     0
102
RTVSPost2010Prop30
280
     1
102
RTVSPost2010PropOp30
 70
     0
102
RTVSPost2010Prop31
280
     0
102
RTVSPost2010PropOp31
 70
     0
102
RTVSPost2010Prop32
280
     0
102
RTVSPost2010PropOp32
 70
     0
102
RTVSPost2010Prop33
280
     0
102
RTVSPost2010PropOp33
 70
     0
102
RTVSPost2010Prop34
280
     0
102
RTVSPost2010PropOp34
 70
     0
102
RTVSPost2010Prop35
280
     0
102
RTVSPost2010PropOp35
 70
     0
102
RTVSPost2010Prop36
280
     0
102
RTVSPost2010PropOp36
 70
     0
102
RTVSPost2010Prop37
 90
       50
102
RTVSPost2010PropOp37
 70
     0
102
RTVSPost2010Prop38
140
0.0
102
RTVSPost2010PropOp38
 70
     0
102
RTVSPost2010Prop39
140
1.0
102
RTVSPost2010PropOp39
 70
     0
102
RTVSPost2010Prop40
 90
        0
102
RTVSPost2010PropOp40
 70
     0
102
RTVSPost2010Prop41ColorIndex
 90
       18
102
RTVSPost2010Prop41ColorRGB
 90
        0
102
RTVSPost2010PropOp41
 70
     0
102
RTVSPost2010Prop42
 90
       50
102
RTVSPost2010PropOp42
 70
     0
102
RTVSPost2010Prop43
 90
        3
102
RTVSPost2010PropOp43
 70
     0
102
RTVSPost2010Prop44ColorIndex
 90
        5
102
RTVSPost2010Prop44ColorRGB
 90
      255
102
RTVSPost2010PropOp44
 70
     0
102
RTVSPost2010Prop45
280
     0
102
RTVSPost2010PropOp45
 70
     0
102
RTVSPost2010Prop46
 90
       50
102
RTVSPost2010PropOp46
 70
     0
102
RTVSPost2010Prop47
 90
       50
102
RTVSPost2010PropOp47
 70
     0
102
RTVSPost2010Prop48
 90
       50
102
RTVSPost2010PropOp48
 70
     0
102
RTVSPost2010Prop49
280
     0
102
RTVSPost2010PropOp49
 70
     0
102
RTVSPost2010Prop50
 90
       50
102
RTVSPost2010PropOp50
 70
     0
102
RTVSPost2010Prop51ColorIndex
 90
      256
102
RTVSPost2010Prop51ColorRGB
 90
-16777216
102
RTVSPost2010PropOp51
 70
     0
102
RTVSPost2010Prop52
140
1.0
102
RTVSPost2010PropOp52
 70
     0
102
RTVSPost2010Prop53
 90
        2
102
RTVSPost2010PropOp53
 70
     0
102
RTVSPost2010Prop54
  1
strokes_ogs.tif
102
RTVSPost2010PropOp54
 70
     0
102
RTVSPost2010Prop55
280
     0
102
RTVSPost2010PropOp55
 70
     0
102
RTVSPost2010Prop56
140
1.0
102
RTVSPost2010PropOp56
 70
     0
102
RTVSPost2010Prop57
140
1.0
102
RTVSPost2010PropOp57
 70
     0
102
RTVSPropertyOp0
 70
     0
102
RTVSPropertyOp1
 70
     0
102
RTVSPropertyOp2
 70
     0
102
RTVSPropertyOp3
 70
     0
102
RTVSPropertyOp4
 70
     0
102
RTVSPropertyOp5
 70
     0
102
RTVSPropertyOp6
 70
     0
102
RTVSPropertyOp7
 70
     0
102
RTVSPropertyOp8
 70
     0
102
RTVSPropertyOp9
 70
     0
102
RTVSPropertyOp10
 70
     0
102
RTVSPropertyOp11
 70
     0
102
RTVSPropertyOp12
 70
     0
102
RTVSPropertyOp13
 70
     0
102
RTVSPropertyOp14
 70
     2
102
RTVSPropertyOp15
 70
     0
102
RTVSPropertyOp16
 70
     0
102
RTVSPropertyOp17
 70
     0
102
RTVSPropertyOp18
 70
     0
102
RTVSPropertyOp19
 70
     0
102
RTVSPropertyOp20
 70
     0
102
RTVSPropertyOp21
 70
     0
102
RTVSPropertyOp22
 70
     0
102
RTVSPropertyOp23
 70
     0
102
RTVSPropertyOp24
 70
     0
102
RTVSPropertyOp25
 70
     0
102
RTVSPropertyOp26
 70
     0
102
RTVSPropertyOp27
 70
     0
102
RTVSPropertyOp28
 70
     0
102
RTVSPropertyOp29
 70
     0
102
RTVSPropertyOp30
 70
     0
102
RTVSPropertyOp31
 70
     0
102
RTVSPropertyOp32
 70
     0
102
RTVSPropertyOp33
 70
     0
102
RTVSPropertyOp34
 70
     0
102
RTVSPropertyOp35
 70
     0
102
RTVSPropertyOp36
 70
     0
102
RTVSPropertyOp37
 70
     0
102
RTVSPropertyOp38
 70
     0
102
RTVSPropertyOp39
 70
     0
102
RTVSPropertyOp40
 70
     0
102
RTVSPropertyOp41
 70
     0
102
RTVSPropertyOp42
 70
     0
102
RTVSPropertyOp43
 70
     0
102
RTVSPropertyOp44
 70
     0
102
RTVSPropertyOp45
 70
     0
102
RTVSPropertyOp46
 70
     0
102
RTVSPropertyOp47
 70
     0
102
RTVSPropertyOp48
 70
     0
102
RTVSPropertyOp49
 70
     0
102
RTVSPropertyOp50
 70
     0
102
RTVSPropertyOp51
 70
     0
102
RTVSPropertyOp52
 70
     0
102
RTVSPropertyOp53
 70
     0
102
RTVSPropertyOp54
 70
     0
102
RTVSPropertyOp55
 70
     0
102
RTVSPropertyOp56
 70
     0
102
RTVSPropertyOp57
 70
     0
102
RTVSPropertyOp58
 70
     0
102
RTVSPropertyOp59
 70
     0
102
RTVSPropertyOp60
 70
     0
102
RTVSPropertyOp61
 70
     0
102
RTVSPropertyOp62
 70
     0
  0
XRECORD
  5
2BE5
102
{ACAD_REACTORS
330
2BE4
102
}
330
2BE4
100
AcDbXrecord
280
     1
102
RTVSPost2010Prop28
280
     0
102
RTVSPost2010PropOp28
 70
     1
102
RTVSPost2010Prop29
280
     1
102
RTVSPost2010PropOp29
 70
     1
102
RTVSPost2010Prop30
280
     1
102
RTVSPost2010PropOp30
 70
     1
102
RTVSPost2010Prop31
280
     0
102
RTVSPost2010PropOp31
 70
     1
102
RTVSPost2010Prop32
280
     0
102
RTVSPost2010PropOp32
 70
     1
102
RTVSPost2010Prop33
280
     0
102
RTVSPost2010PropOp33
 70
     1
102
RTVSPost2010Prop34
280
     0
102
RTVSPost2010PropOp34
 70
     1
102
RTVSPost2010Prop35
280
     0
102
RTVSPost2010PropOp35
 70
     1
102
RTVSPost2010Prop36
280
     0
102
RTVSPost2010PropOp36
 70
     1
102
RTVSPost2010Prop37
 90
       50
102
RTVSPost2010PropOp37
 70
     1
102
RTVSPost2010Prop38
140
0.0
102
RTVSPost2010PropOp38
 70
     1
102
RTVSPost2010Prop39
140
1.0
102
RTVSPost2010PropOp39
 70
     1
102
RTVSPost2010Prop40
 90
        0
102
RTVSPost2010PropOp40
 70
     1
102
RTVSPost2010Prop41ColorIndex
 90
       18
102
RTVSPost2010Prop41ColorRGB
 90
        0
102
RTVSPost2010PropOp41
 70
     1
102
RTVSPost2010Prop42
 90
       50
102
RTVSPost2010PropOp42
 70
     1
102
RTVSPost2010Prop43
 90
        3
102
RTVSPost2010PropOp43
 70
     1
102
RTVSPost2010Prop44ColorIndex
 90
        5
102
RTVSPost2010Prop44ColorRGB
 90
      255
102
RTVSPost2010PropOp44
 70
     1
102
RTVSPost2010Prop45
280
     0
102
RTVSPost2010PropOp45
 70
     1
102
RTVSPost2010Prop46
 90
       50
102
RTVSPost2010PropOp46
 70
     1
102
RTVSPost2010Prop47
 90
       50
102
RTVSPost2010PropOp47
 70
     1
102
RTVSPost2010Prop48
 90
       50
102
RTVSPost2010PropOp48
 70
     1
102
RTVSPost2010Prop49
280
     0
102
RTVSPost2010PropOp49
 70
     1
102
RTVSPost2010Prop50
 90
       50
102
RTVSPost2010PropOp50
 70
     1
102
RTVSPost2010Prop51ColorIndex
 90
      256
102
RTVSPost2010Prop51ColorRGB
 90
-16777216
102
RTVSPost2010PropOp51
 70
     0
102
RTVSPost2010Prop52
140
1.0
102
RTVSPost2010PropOp52
 70
     0
102
RTVSPost2010Prop53
 90
        2
102
RTVSPost2010PropOp53
 70
     1
102
RTVSPost2010Prop54
  1
strokes_ogs.tif
102
RTVSPost2010PropOp54
 70
     1
102
RTVSPost2010Prop55
280
     0
102
RTVSPost2010PropOp55
 70
     1
102
RTVSPost2010Prop56
140
1.0
102
RTVSPost2010PropOp56
 70
     1
102
RTVSPost2010Prop57
140
1.0
102
RTVSPost2010PropOp57
 70
     1
102
RTVSPropertyOp0
 70
     1
102
RTVSPropertyOp1
 70
     1
102
RTVSPropertyOp2
 70
     1
102
RTVSPropertyOp3
 70
     1
102
RTVSPropertyOp4
 70
     1
102
RTVSPropertyOp5
 70
     1
102
RTVSPropertyOp6
 70
     1
102
RTVSPropertyOp7
 70
     1
102
RTVSPropertyOp8
 70
     1
102
RTVSPropertyOp9
 70
     1
102
RTVSPropertyOp10
 70
     1
102
RTVSPropertyOp11
 70
     1
102
RTVSPropertyOp12
 70
     1
102
RTVSPropertyOp13
 70
     1
102
RTVSPropertyOp14
 70
     1
102
RTVSPropertyOp15
 70
     1
102
RTVSPropertyOp16
 70
     1
102
RTVSPropertyOp17
 70
     1
102
RTVSPropertyOp18
 70
     1
102
RTVSPropertyOp19
 70
     1
102
RTVSPropertyOp20
 70
     1
102
RTVSPropertyOp21
 70
     1
102
RTVSPropertyOp22
 70
     1
102
RTVSPropertyOp23
 70
     1
102
RTVSPropertyOp24
 70
     1
102
RTVSPropertyOp25
 70
     1
102
RTVSPropertyOp26
 70
     1
102
RTVSPropertyOp27
 70
     1
102
RTVSPropertyOp28
 70
     1
102
RTVSPropertyOp29
 70
     1
102
RTVSPropertyOp30
 70
     1
102
RTVSPropertyOp31
 70
     1
102
RTVSPropertyOp32
 70
     1
102
RTVSPropertyOp33
 70
     1
102
RTVSPropertyOp34
 70
     1
102
RTVSPropertyOp35
 70
     1
102
RTVSPropertyOp36
 70
     1
102
RTVSPropertyOp37
 70
     1
102
RTVSPropertyOp38
 70
     1
102
RTVSPropertyOp39
 70
     1
102
RTVSPropertyOp40
 70
     1
102
RTVSPropertyOp41
 70
     1
102
RTVSPropertyOp42
 70
     1
102
RTVSPropertyOp43
 70
     1
102
RTVSPropertyOp44
 70
     1
102
RTVSPropertyOp45
 70
     1
102
RTVSPropertyOp46
 70
     1
102
RTVSPropertyOp47
 70
     1
102
RTVSPropertyOp48
 70
     1
102
RTVSPropertyOp49
 70
     1
102
RTVSPropertyOp50
 70
     1
102
RTVSPropertyOp51
 70
     0
102
RTVSPropertyOp52
 70
     0
102
RTVSPropertyOp53
 70
     1
102
RTVSPropertyOp54
 70
     1
102
RTVSPropertyOp55
 70
     1
102
RTVSPropertyOp56
 70
     1
102
RTVSPropertyOp57
 70
     1
102
RTVSPropertyOp58
 70
     1
102
RTVSPropertyOp59
 70
     1
102
RTVSPropertyOp60
 70
     1
102
RTVSPropertyOp61
 70
     1
102
RTVSPropertyOp62
 70
     1
  0
XRECORD
  5
2BC9
102
{ACAD_REACTORS
330
2BC8
102
}
330
2BC8
100
AcDbXrecord
280
     1
102
RTVSPost2010Prop28
280
     0
102
RTVSPost2010PropOp28
 70
     1
102
RTVSPost2010Prop29
280
     1
102
RTVSPost2010PropOp29
 70
     1
102
RTVSPost2010Prop30
280
     1
102
RTVSPost2010PropOp30
 70
     1
102
RTVSPost2010Prop31
280
     0
102
RTVSPost2010PropOp31
 70
     1
102
RTVSPost2010Prop32
280
     0
102
RTVSPost2010PropOp32
 70
     1
102
RTVSPost2010Prop33
280
     0
102
RTVSPost2010PropOp33
 70
     1
102
RTVSPost2010Prop34
280
     0
102
RTVSPost2010PropOp34
 70
     1
102
RTVSPost2010Prop35
280
     0
102
RTVSPost2010PropOp35
 70
     1
102
RTVSPost2010Prop36
280
     0
102
RTVSPost2010PropOp36
 70
     1
102
RTVSPost2010Prop37
 90
       50
102
RTVSPost2010PropOp37
 70
     1
102
RTVSPost2010Prop38
140
0.0
102
RTVSPost2010PropOp38
 70
     1
102
RTVSPost2010Prop39
140
1.0
102
RTVSPost2010PropOp39
 70
     1
102
RTVSPost2010Prop40
 90
        0
102
RTVSPost2010PropOp40
 70
     1
102
RTVSPost2010Prop41ColorIndex
 90
       18
102
RTVSPost2010Prop41ColorRGB
 90
        0
102
RTVSPost2010PropOp41
 70
     1
102
RTVSPost2010Prop42
 90
       50
102
RTVSPost2010PropOp42
 70
     1
102
RTVSPost2010Prop43
 90
        3
102
RTVSPost2010PropOp43
 70
     1
102
RTVSPost2010Prop44ColorIndex
 90
        5
102
RTVSPost2010Prop44ColorRGB
 90
      255
102
RTVSPost2010PropOp44
 70
     1
102
RTVSPost2010Prop45
280
     0
102
RTVSPost2010PropOp45
 70
     1
102
RTVSPost2010Prop46
 90
       50
102
RTVSPost2010PropOp46
 70
     1
102
RTVSPost2010Prop47
 90
       50
102
RTVSPost2010PropOp47
 70
     1
102
RTVSPost2010Prop48
 90
       50
102
RTVSPost2010PropOp48
 70
     1
102
RTVSPost2010Prop49
280
     0
102
RTVSPost2010PropOp49
 70
     1
102
RTVSPost2010Prop50
 90
       50
102
RTVSPost2010PropOp50
 70
     1
102
RTVSPost2010Prop51ColorIndex
 90
      256
102
RTVSPost2010Prop51ColorRGB
 90
-16777216
102
RTVSPost2010PropOp51
 70
     0
102
RTVSPost2010Prop52
140
1.0
102
RTVSPost2010PropOp52
 70
     0
102
RTVSPost2010Prop53
 90
        2
102
RTVSPost2010PropOp53
 70
     1
102
RTVSPost2010Prop54
  1
strokes_ogs.tif
102
RTVSPost2010PropOp54
 70
     1
102
RTVSPost2010Prop55
280
     0
102
RTVSPost2010PropOp55
 70
     1
102
RTVSPost2010Prop56
140
1.0
102
RTVSPost2010PropOp56
 70
     1
102
RTVSPost2010Prop57
140
1.0
102
RTVSPost2010PropOp57
 70
     1
102
RTVSPropertyOp0
 70
     1
102
RTVSPropertyOp1
 70
     1
102
RTVSPropertyOp2
 70
     1
102
RTVSPropertyOp3
 70
     1
102
RTVSPropertyOp4
 70
     1
102
RTVSPropertyOp5
 70
     1
102
RTVSPropertyOp6
 70
     1
102
RTVSPropertyOp7
 70
     1
102
RTVSPropertyOp8
 70
     1
102
RTVSPropertyOp9
 70
     1
102
RTVSPropertyOp10
 70
     1
102
RTVSPropertyOp11
 70
     1
102
RTVSPropertyOp12
 70
     1
102
RTVSPropertyOp13
 70
     1
102
RTVSPropertyOp14
 70
     1
102
RTVSPropertyOp15
 70
     1
102
RTVSPropertyOp16
 70
     1
102
RTVSPropertyOp17
 70
     1
102
RTVSPropertyOp18
 70
     1
102
RTVSPropertyOp19
 70
     1
102
RTVSPropertyOp20
 70
     1
102
RTVSPropertyOp21
 70
     1
102
RTVSPropertyOp22
 70
     1
102
RTVSPropertyOp23
 70
     1
102
RTVSPropertyOp24
 70
     1
102
RTVSPropertyOp25
 70
     1
102
RTVSPropertyOp26
 70
     1
102
RTVSPropertyOp27
 70
     1
102
RTVSPropertyOp28
 70
     1
102
RTVSPropertyOp29
 70
     1
102
RTVSPropertyOp30
 70
     1
102
RTVSPropertyOp31
 70
     1
102
RTVSPropertyOp32
 70
     1
102
RTVSPropertyOp33
 70
     1
102
RTVSPropertyOp34
 70
     1
102
RTVSPropertyOp35
 70
     1
102
RTVSPropertyOp36
 70
     1
102
RTVSPropertyOp37
 70
     1
102
RTVSPropertyOp38
 70
     1
102
RTVSPropertyOp39
 70
     1
102
RTVSPropertyOp40
 70
     1
102
RTVSPropertyOp41
 70
     1
102
RTVSPropertyOp42
 70
     1
102
RTVSPropertyOp43
 70
     1
102
RTVSPropertyOp44
 70
     1
102
RTVSPropertyOp45
 70
     1
102
RTVSPropertyOp46
 70
     1
102
RTVSPropertyOp47
 70
     1
102
RTVSPropertyOp48
 70
     1
102
RTVSPropertyOp49
 70
     1
102
RTVSPropertyOp50
 70
     1
102
RTVSPropertyOp51
 70
     0
102
RTVSPropertyOp52
 70
     0
102
RTVSPropertyOp53
 70
     1
102
RTVSPropertyOp54
 70
     1
102
RTVSPropertyOp55
 70
     1
102
RTVSPropertyOp56
 70
     1
102
RTVSPropertyOp57
 70
     1
102
RTVSPropertyOp58
 70
     1
102
RTVSPropertyOp59
 70
     1
102
RTVSPropertyOp60
 70
     1
102
RTVSPropertyOp61
 70
     1
102
RTVSPropertyOp62
 70
     1
  0
XRECORD
  5
2BCB
102
{ACAD_REACTORS
330
2BCA
102
}
330
2BCA
100
AcDbXrecord
280
     1
102
RTVSPost2010Prop28
280
     0
102
RTVSPost2010PropOp28
 70
     1
102
RTVSPost2010Prop29
280
     1
102
RTVSPost2010PropOp29
 70
     1
102
RTVSPost2010Prop30
280
     1
102
RTVSPost2010PropOp30
 70
     1
102
RTVSPost2010Prop31
280
     0
102
RTVSPost2010PropOp31
 70
     1
102
RTVSPost2010Prop32
280
     0
102
RTVSPost2010PropOp32
 70
     1
102
RTVSPost2010Prop33
280
     0
102
RTVSPost2010PropOp33
 70
     1
102
RTVSPost2010Prop34
280
     0
102
RTVSPost2010PropOp34
 70
     1
102
RTVSPost2010Prop35
280
     0
102
RTVSPost2010PropOp35
 70
     1
102
RTVSPost2010Prop36
280
     0
102
RTVSPost2010PropOp36
 70
     1
102
RTVSPost2010Prop37
 90
       50
102
RTVSPost2010PropOp37
 70
     1
102
RTVSPost2010Prop38
140
0.0
102
RTVSPost2010PropOp38
 70
     1
102
RTVSPost2010Prop39
140
1.0
102
RTVSPost2010PropOp39
 70
     1
102
RTVSPost2010Prop40
 90
        0
102
RTVSPost2010PropOp40
 70
     1
102
RTVSPost2010Prop41ColorIndex
 90
       18
102
RTVSPost2010Prop41ColorRGB
 90
        0
102
RTVSPost2010PropOp41
 70
     1
102
RTVSPost2010Prop42
 90
       50
102
RTVSPost2010PropOp42
 70
     1
102
RTVSPost2010Prop43
 90
        3
102
RTVSPost2010PropOp43
 70
     1
102
RTVSPost2010Prop44ColorIndex
 90
        5
102
RTVSPost2010Prop44ColorRGB
 90
      255
102
RTVSPost2010PropOp44
 70
     1
102
RTVSPost2010Prop45
280
     0
102
RTVSPost2010PropOp45
 70
     1
102
RTVSPost2010Prop46
 90
       50
102
RTVSPost2010PropOp46
 70
     1
102
RTVSPost2010Prop47
 90
       50
102
RTVSPost2010PropOp47
 70
     1
102
RTVSPost2010Prop48
 90
       50
102
RTVSPost2010PropOp48
 70
     1
102
RTVSPost2010Prop49
280
     0
102
RTVSPost2010PropOp49
 70
     1
102
RTVSPost2010Prop50
 90
       50
102
RTVSPost2010PropOp50
 70
     1
102
RTVSPost2010Prop51ColorIndex
 90
      256
102
RTVSPost2010Prop51ColorRGB
 90
-16777216
102
RTVSPost2010PropOp51
 70
     0
102
RTVSPost2010Prop52
140
1.0
102
RTVSPost2010PropOp52
 70
     0
102
RTVSPost2010Prop53
 90
        2
102
RTVSPost2010PropOp53
 70
     1
102
RTVSPost2010Prop54
  1
strokes_ogs.tif
102
RTVSPost2010PropOp54
 70
     1
102
RTVSPost2010Prop55
280
     0
102
RTVSPost2010PropOp55
 70
     1
102
RTVSPost2010Prop56
140
1.0
102
RTVSPost2010PropOp56
 70
     1
102
RTVSPost2010Prop57
140
1.0
102
RTVSPost2010PropOp57
 70
     1
102
RTVSPropertyOp0
 70
     1
102
RTVSPropertyOp1
 70
     1
102
RTVSPropertyOp2
 70
     1
102
RTVSPropertyOp3
 70
     1
102
RTVSPropertyOp4
 70
     1
102
RTVSPropertyOp5
 70
     1
102
RTVSPropertyOp6
 70
     1
102
RTVSPropertyOp7
 70
     1
102
RTVSPropertyOp8
 70
     1
102
RTVSPropertyOp9
 70
     1
102
RTVSPropertyOp10
 70
     1
102
RTVSPropertyOp11
 70
     1
102
RTVSPropertyOp12
 70
     1
102
RTVSPropertyOp13
 70
     1
102
RTVSPropertyOp14
 70
     1
102
RTVSPropertyOp15
 70
     1
102
RTVSPropertyOp16
 70
     1
102
RTVSPropertyOp17
 70
     1
102
RTVSPropertyOp18
 70
     1
102
RTVSPropertyOp19
 70
     1
102
RTVSPropertyOp20
 70
     1
102
RTVSPropertyOp21
 70
     1
102
RTVSPropertyOp22
 70
     1
102
RTVSPropertyOp23
 70
     1
102
RTVSPropertyOp24
 70
     1
102
RTVSPropertyOp25
 70
     1
102
RTVSPropertyOp26
 70
     1
102
RTVSPropertyOp27
 70
     1
102
RTVSPropertyOp28
 70
     1
102
RTVSPropertyOp29
 70
     1
102
RTVSPropertyOp30
 70
     1
102
RTVSPropertyOp31
 70
     1
102
RTVSPropertyOp32
 70
     1
102
RTVSPropertyOp33
 70
     1
102
RTVSPropertyOp34
 70
     1
102
RTVSPropertyOp35
 70
     1
102
RTVSPropertyOp36
 70
     1
102
RTVSPropertyOp37
 70
     1
102
RTVSPropertyOp38
 70
     1
102
RTVSPropertyOp39
 70
     1
102
RTVSPropertyOp40
 70
     1
102
RTVSPropertyOp41
 70
     1
102
RTVSPropertyOp42
 70
     1
102
RTVSPropertyOp43
 70
     1
102
RTVSPropertyOp44
 70
     1
102
RTVSPropertyOp45
 70
     1
102
RTVSPropertyOp46
 70
     1
102
RTVSPropertyOp47
 70
     1
102
RTVSPropertyOp48
 70
     1
102
RTVSPropertyOp49
 70
     1
102
RTVSPropertyOp50
 70
     1
102
RTVSPropertyOp51
 70
     0
102
RTVSPropertyOp52
 70
     0
102
RTVSPropertyOp53
 70
     1
102
RTVSPropertyOp54
 70
     1
102
RTVSPropertyOp55
 70
     1
102
RTVSPropertyOp56
 70
     1
102
RTVSPropertyOp57
 70
     1
102
RTVSPropertyOp58
 70
     1
102
RTVSPropertyOp59
 70
     1
102
RTVSPropertyOp60
 70
     1
102
RTVSPropertyOp61
 70
     1
102
RTVSPropertyOp62
 70
     1
  0
XRECORD
  5
2BCD
102
{ACAD_REACTORS
330
2BCC
102
}
330
2BCC
100
AcDbXrecord
280
     1
102
RTVSPost2010Prop28
280
     0
102
RTVSPost2010PropOp28
 70
     1
102
RTVSPost2010Prop29
280
     1
102
RTVSPost2010PropOp29
 70
     1
102
RTVSPost2010Prop30
280
     1
102
RTVSPost2010PropOp30
 70
     1
102
RTVSPost2010Prop31
280
     0
102
RTVSPost2010PropOp31
 70
     1
102
RTVSPost2010Prop32
280
     0
102
RTVSPost2010PropOp32
 70
     1
102
RTVSPost2010Prop33
280
     0
102
RTVSPost2010PropOp33
 70
     1
102
RTVSPost2010Prop34
280
     0
102
RTVSPost2010PropOp34
 70
     1
102
RTVSPost2010Prop35
280
     0
102
RTVSPost2010PropOp35
 70
     1
102
RTVSPost2010Prop36
280
     0
102
RTVSPost2010PropOp36
 70
     1
102
RTVSPost2010Prop37
 90
       50
102
RTVSPost2010PropOp37
 70
     1
102
RTVSPost2010Prop38
140
0.0
102
RTVSPost2010PropOp38
 70
     1
102
RTVSPost2010Prop39
140
1.0
102
RTVSPost2010PropOp39
 70
     1
102
RTVSPost2010Prop40
 90
        0
102
RTVSPost2010PropOp40
 70
     1
102
RTVSPost2010Prop41ColorIndex
 90
       18
102
RTVSPost2010Prop41ColorRGB
 90
        0
102
RTVSPost2010PropOp41
 70
     1
102
RTVSPost2010Prop42
 90
       50
102
RTVSPost2010PropOp42
 70
     1
102
RTVSPost2010Prop43
 90
        3
102
RTVSPost2010PropOp43
 70
     1
102
RTVSPost2010Prop44ColorIndex
 90
        5
102
RTVSPost2010Prop44ColorRGB
 90
      255
102
RTVSPost2010PropOp44
 70
     1
102
RTVSPost2010Prop45
280
     0
102
RTVSPost2010PropOp45
 70
     1
102
RTVSPost2010Prop46
 90
       50
102
RTVSPost2010PropOp46
 70
     1
102
RTVSPost2010Prop47
 90
       50
102
RTVSPost2010PropOp47
 70
     1
102
RTVSPost2010Prop48
 90
       50
102
RTVSPost2010PropOp48
 70
     1
102
RTVSPost2010Prop49
280
     0
102
RTVSPost2010PropOp49
 70
     1
102
RTVSPost2010Prop50
 90
       50
102
RTVSPost2010PropOp50
 70
     1
102
RTVSPost2010Prop51ColorIndex
 90
      256
102
RTVSPost2010Prop51ColorRGB
 90
-16777216
102
RTVSPost2010PropOp51
 70
     0
102
RTVSPost2010Prop52
140
1.0
102
RTVSPost2010PropOp52
 70
     0
102
RTVSPost2010Prop53
 90
        2
102
RTVSPost2010PropOp53
 70
     1
102
RTVSPost2010Prop54
  1
strokes_ogs.tif
102
RTVSPost2010PropOp54
 70
     1
102
RTVSPost2010Prop55
280
     0
102
RTVSPost2010PropOp55
 70
     1
102
RTVSPost2010Prop56
140
1.0
102
RTVSPost2010PropOp56
 70
     1
102
RTVSPost2010Prop57
140
1.0
102
RTVSPost2010PropOp57
 70
     1
102
RTVSPropertyOp0
 70
     1
102
RTVSPropertyOp1
 70
     1
102
RTVSPropertyOp2
 70
     1
102
RTVSPropertyOp3
 70
     1
102
RTVSPropertyOp4
 70
     1
102
RTVSPropertyOp5
 70
     1
102
RTVSPropertyOp6
 70
     1
102
RTVSPropertyOp7
 70
     1
102
RTVSPropertyOp8
 70
     1
102
RTVSPropertyOp9
 70
     1
102
RTVSPropertyOp10
 70
     1
102
RTVSPropertyOp11
 70
     1
102
RTVSPropertyOp12
 70
     1
102
RTVSPropertyOp13
 70
     1
102
RTVSPropertyOp14
 70
     1
102
RTVSPropertyOp15
 70
     1
102
RTVSPropertyOp16
 70
     1
102
RTVSPropertyOp17
 70
     1
102
RTVSPropertyOp18
 70
     1
102
RTVSPropertyOp19
 70
     1
102
RTVSPropertyOp20
 70
     1
102
RTVSPropertyOp21
 70
     1
102
RTVSPropertyOp22
 70
     1
102
RTVSPropertyOp23
 70
     1
102
RTVSPropertyOp24
 70
     1
102
RTVSPropertyOp25
 70
     1
102
RTVSPropertyOp26
 70
     1
102
RTVSPropertyOp27
 70
     1
102
RTVSPropertyOp28
 70
     1
102
RTVSPropertyOp29
 70
     1
102
RTVSPropertyOp30
 70
     1
102
RTVSPropertyOp31
 70
     1
102
RTVSPropertyOp32
 70
     1
102
RTVSPropertyOp33
 70
     1
102
RTVSPropertyOp34
 70
     1
102
RTVSPropertyOp35
 70
     1
102
RTVSPropertyOp36
 70
     1
102
RTVSPropertyOp37
 70
     1
102
RTVSPropertyOp38
 70
     1
102
RTVSPropertyOp39
 70
     1
102
RTVSPropertyOp40
 70
     1
102
RTVSPropertyOp41
 70
     1
102
RTVSPropertyOp42
 70
     1
102
RTVSPropertyOp43
 70
     1
102
RTVSPropertyOp44
 70
     1
102
RTVSPropertyOp45
 70
     1
102
RTVSPropertyOp46
 70
     1
102
RTVSPropertyOp47
 70
     1
102
RTVSPropertyOp48
 70
     1
102
RTVSPropertyOp49
 70
     1
102
RTVSPropertyOp50
 70
     1
102
RTVSPropertyOp51
 70
     0
102
RTVSPropertyOp52
 70
     0
102
RTVSPropertyOp53
 70
     1
102
RTVSPropertyOp54
 70
     1
102
RTVSPropertyOp55
 70
     1
102
RTVSPropertyOp56
 70
     1
102
RTVSPropertyOp57
 70
     1
102
RTVSPropertyOp58
 70
     1
102
RTVSPropertyOp59
 70
     1
102
RTVSPropertyOp60
 70
     1
102
RTVSPropertyOp61
 70
     1
102
RTVSPropertyOp62
 70
     1
  0
XRECORD
  5
2BCF
102
{ACAD_REACTORS
330
2BCE
102
}
330
2BCE
100
AcDbXrecord
280
     1
102
RTVSPost2010Prop28
280
     0
102
RTVSPost2010PropOp28
 70
     1
102
RTVSPost2010Prop29
280
     1
102
RTVSPost2010PropOp29
 70
     1
102
RTVSPost2010Prop30
280
     1
102
RTVSPost2010PropOp30
 70
     1
102
RTVSPost2010Prop31
280
     0
102
RTVSPost2010PropOp31
 70
     1
102
RTVSPost2010Prop32
280
     0
102
RTVSPost2010PropOp32
 70
     1
102
RTVSPost2010Prop33
280
     0
102
RTVSPost2010PropOp33
 70
     1
102
RTVSPost2010Prop34
280
     0
102
RTVSPost2010PropOp34
 70
     1
102
RTVSPost2010Prop35
280
     0
102
RTVSPost2010PropOp35
 70
     1
102
RTVSPost2010Prop36
280
     0
102
RTVSPost2010PropOp36
 70
     1
102
RTVSPost2010Prop37
 90
       50
102
RTVSPost2010PropOp37
 70
     1
102
RTVSPost2010Prop38
140
0.0
102
RTVSPost2010PropOp38
 70
     1
102
RTVSPost2010Prop39
140
1.0
102
RTVSPost2010PropOp39
 70
     1
102
RTVSPost2010Prop40
 90
        0
102
RTVSPost2010PropOp40
 70
     1
102
RTVSPost2010Prop41ColorIndex
 90
       18
102
RTVSPost2010Prop41ColorRGB
 90
        0
102
RTVSPost2010PropOp41
 70
     1
102
RTVSPost2010Prop42
 90
       50
102
RTVSPost2010PropOp42
 70
     1
102
RTVSPost2010Prop43
 90
        3
102
RTVSPost2010PropOp43
 70
     1
102
RTVSPost2010Prop44ColorIndex
 90
        5
102
RTVSPost2010Prop44ColorRGB
 90
      255
102
RTVSPost2010PropOp44
 70
     1
102
RTVSPost2010Prop45
280
     0
102
RTVSPost2010PropOp45
 70
     1
102
RTVSPost2010Prop46
 90
       50
102
RTVSPost2010PropOp46
 70
     1
102
RTVSPost2010Prop47
 90
       50
102
RTVSPost2010PropOp47
 70
     1
102
RTVSPost2010Prop48
 90
       50
102
RTVSPost2010PropOp48
 70
     1
102
RTVSPost2010Prop49
280
     0
102
RTVSPost2010PropOp49
 70
     1
102
RTVSPost2010Prop50
 90
       50
102
RTVSPost2010PropOp50
 70
     1
102
RTVSPost2010Prop51ColorIndex
 90
      256
102
RTVSPost2010Prop51ColorRGB
 90
-16777216
102
RTVSPost2010PropOp51
 70
     0
102
RTVSPost2010Prop52
140
1.0
102
RTVSPost2010PropOp52
 70
     0
102
RTVSPost2010Prop53
 90
        2
102
RTVSPost2010PropOp53
 70
     1
102
RTVSPost2010Prop54
  1
strokes_ogs.tif
102
RTVSPost2010PropOp54
 70
     1
102
RTVSPost2010Prop55
280
     0
102
RTVSPost2010PropOp55
 70
     1
102
RTVSPost2010Prop56
140
1.0
102
RTVSPost2010PropOp56
 70
     1
102
RTVSPost2010Prop57
140
1.0
102
RTVSPost2010PropOp57
 70
     1
102
RTVSPropertyOp0
 70
     1
102
RTVSPropertyOp1
 70
     1
102
RTVSPropertyOp2
 70
     1
102
RTVSPropertyOp3
 70
     1
102
RTVSPropertyOp4
 70
     1
102
RTVSPropertyOp5
 70
     1
102
RTVSPropertyOp6
 70
     1
102
RTVSPropertyOp7
 70
     1
102
RTVSPropertyOp8
 70
     1
102
RTVSPropertyOp9
 70
     1
102
RTVSPropertyOp10
 70
     1
102
RTVSPropertyOp11
 70
     1
102
RTVSPropertyOp12
 70
     1
102
RTVSPropertyOp13
 70
     1
102
RTVSPropertyOp14
 70
     1
102
RTVSPropertyOp15
 70
     1
102
RTVSPropertyOp16
 70
     1
102
RTVSPropertyOp17
 70
     1
102
RTVSPropertyOp18
 70
     1
102
RTVSPropertyOp19
 70
     1
102
RTVSPropertyOp20
 70
     1
102
RTVSPropertyOp21
 70
     1
102
RTVSPropertyOp22
 70
     1
102
RTVSPropertyOp23
 70
     1
102
RTVSPropertyOp24
 70
     1
102
RTVSPropertyOp25
 70
     1
102
RTVSPropertyOp26
 70
     1
102
RTVSPropertyOp27
 70
     1
102
RTVSPropertyOp28
 70
     1
102
RTVSPropertyOp29
 70
     1
102
RTVSPropertyOp30
 70
     1
102
RTVSPropertyOp31
 70
     1
102
RTVSPropertyOp32
 70
     1
102
RTVSPropertyOp33
 70
     1
102
RTVSPropertyOp34
 70
     1
102
RTVSPropertyOp35
 70
     1
102
RTVSPropertyOp36
 70
     1
102
RTVSPropertyOp37
 70
     1
102
RTVSPropertyOp38
 70
     1
102
RTVSPropertyOp39
 70
     1
102
RTVSPropertyOp40
 70
     1
102
RTVSPropertyOp41
 70
     1
102
RTVSPropertyOp42
 70
     1
102
RTVSPropertyOp43
 70
     1
102
RTVSPropertyOp44
 70
     1
102
RTVSPropertyOp45
 70
     1
102
RTVSPropertyOp46
 70
     1
102
RTVSPropertyOp47
 70
     1
102
RTVSPropertyOp48
 70
     1
102
RTVSPropertyOp49
 70
     1
102
RTVSPropertyOp50
 70
     1
102
RTVSPropertyOp51
 70
     0
102
RTVSPropertyOp52
 70
     0
102
RTVSPropertyOp53
 70
     1
102
RTVSPropertyOp54
 70
     1
102
RTVSPropertyOp55
 70
     1
102
RTVSPropertyOp56
 70
     1
102
RTVSPropertyOp57
 70
     1
102
RTVSPropertyOp58
 70
     1
102
RTVSPropertyOp59
 70
     1
102
RTVSPropertyOp60
 70
     1
102
RTVSPropertyOp61
 70
     1
102
RTVSPropertyOp62
 70
     1
  0
XRECORD
  5
2BD7
102
{ACAD_REACTORS
330
2BD6
102
}
330
2BD6
100
AcDbXrecord
280
     1
102
RTVSPost2010Prop28
280
     0
102
RTVSPost2010PropOp28
 70
     1
102
RTVSPost2010Prop29
280
     1
102
RTVSPost2010PropOp29
 70
     1
102
RTVSPost2010Prop30
280
     1
102
RTVSPost2010PropOp30
 70
     1
102
RTVSPost2010Prop31
280
     0
102
RTVSPost2010PropOp31
 70
     1
102
RTVSPost2010Prop32
280
     0
102
RTVSPost2010PropOp32
 70
     1
102
RTVSPost2010Prop33
280
     0
102
RTVSPost2010PropOp33
 70
     1
102
RTVSPost2010Prop34
280
     0
102
RTVSPost2010PropOp34
 70
     1
102
RTVSPost2010Prop35
280
     0
102
RTVSPost2010PropOp35
 70
     1
102
RTVSPost2010Prop36
280
     0
102
RTVSPost2010PropOp36
 70
     1
102
RTVSPost2010Prop37
 90
       50
102
RTVSPost2010PropOp37
 70
     1
102
RTVSPost2010Prop38
140
0.0
102
RTVSPost2010PropOp38
 70
     1
102
RTVSPost2010Prop39
140
1.0
102
RTVSPost2010PropOp39
 70
     1
102
RTVSPost2010Prop40
 90
        0
102
RTVSPost2010PropOp40
 70
     1
102
RTVSPost2010Prop41ColorIndex
 90
       18
102
RTVSPost2010Prop41ColorRGB
 90
        0
102
RTVSPost2010PropOp41
 70
     1
102
RTVSPost2010Prop42
 90
       50
102
RTVSPost2010PropOp42
 70
     1
102
RTVSPost2010Prop43
 90
        3
102
RTVSPost2010PropOp43
 70
     1
102
RTVSPost2010Prop44ColorIndex
 90
        5
102
RTVSPost2010Prop44ColorRGB
 90
      255
102
RTVSPost2010PropOp44
 70
     1
102
RTVSPost2010Prop45
280
     0
102
RTVSPost2010PropOp45
 70
     1
102
RTVSPost2010Prop46
 90
       50
102
RTVSPost2010PropOp46
 70
     1
102
RTVSPost2010Prop47
 90
       50
102
RTVSPost2010PropOp47
 70
     1
102
RTVSPost2010Prop48
 90
       50
102
RTVSPost2010PropOp48
 70
     1
102
RTVSPost2010Prop49
280
     0
102
RTVSPost2010PropOp49
 70
     1
102
RTVSPost2010Prop50
 90
       50
102
RTVSPost2010PropOp50
 70
     1
102
RTVSPost2010Prop51ColorIndex
 90
      256
102
RTVSPost2010Prop51ColorRGB
 90
-16777216
102
RTVSPost2010PropOp51
 70
     0
102
RTVSPost2010Prop52
140
1.0
102
RTVSPost2010PropOp52
 70
     0
102
RTVSPost2010Prop53
 90
        2
102
RTVSPost2010PropOp53
 70
     1
102
RTVSPost2010Prop54
  1
strokes_ogs.tif
102
RTVSPost2010PropOp54
 70
     1
102
RTVSPost2010Prop55
280
     0
102
RTVSPost2010PropOp55
 70
     1
102
RTVSPost2010Prop56
140
1.0
102
RTVSPost2010PropOp56
 70
     1
102
RTVSPost2010Prop57
140
1.0
102
RTVSPost2010PropOp57
 70
     1
102
RTVSPropertyOp0
 70
     1
102
RTVSPropertyOp1
 70
     1
102
RTVSPropertyOp2
 70
     1
102
RTVSPropertyOp3
 70
     1
102
RTVSPropertyOp4
 70
     1
102
RTVSPropertyOp5
 70
     1
102
RTVSPropertyOp6
 70
     1
102
RTVSPropertyOp7
 70
     1
102
RTVSPropertyOp8
 70
     1
102
RTVSPropertyOp9
 70
     1
102
RTVSPropertyOp10
 70
     1
102
RTVSPropertyOp11
 70
     1
102
RTVSPropertyOp12
 70
     1
102
RTVSPropertyOp13
 70
     1
102
RTVSPropertyOp14
 70
     1
102
RTVSPropertyOp15
 70
     1
102
RTVSPropertyOp16
 70
     1
102
RTVSPropertyOp17
 70
     1
102
RTVSPropertyOp18
 70
     1
102
RTVSPropertyOp19
 70
     1
102
RTVSPropertyOp20
 70
     1
102
RTVSPropertyOp21
 70
     1
102
RTVSPropertyOp22
 70
     1
102
RTVSPropertyOp23
 70
     1
102
RTVSPropertyOp24
 70
     1
102
RTVSPropertyOp25
 70
     1
102
RTVSPropertyOp26
 70
     1
102
RTVSPropertyOp27
 70
     1
102
RTVSPropertyOp28
 70
     1
102
RTVSPropertyOp29
 70
     1
102
RTVSPropertyOp30
 70
     1
102
RTVSPropertyOp31
 70
     1
102
RTVSPropertyOp32
 70
     1
102
RTVSPropertyOp33
 70
     1
102
RTVSPropertyOp34
 70
     1
102
RTVSPropertyOp35
 70
     1
102
RTVSPropertyOp36
 70
     1
102
RTVSPropertyOp37
 70
     1
102
RTVSPropertyOp38
 70
     1
102
RTVSPropertyOp39
 70
     1
102
RTVSPropertyOp40
 70
     1
102
RTVSPropertyOp41
 70
     1
102
RTVSPropertyOp42
 70
     1
102
RTVSPropertyOp43
 70
     1
102
RTVSPropertyOp44
 70
     1
102
RTVSPropertyOp45
 70
     1
102
RTVSPropertyOp46
 70
     1
102
RTVSPropertyOp47
 70
     1
102
RTVSPropertyOp48
 70
     1
102
RTVSPropertyOp49
 70
     1
102
RTVSPropertyOp50
 70
     1
102
RTVSPropertyOp51
 70
     0
102
RTVSPropertyOp52
 70
     0
102
RTVSPropertyOp53
 70
     1
102
RTVSPropertyOp54
 70
     1
102
RTVSPropertyOp55
 70
     1
102
RTVSPropertyOp56
 70
     1
102
RTVSPropertyOp57
 70
     1
102
RTVSPropertyOp58
 70
     1
102
RTVSPropertyOp59
 70
     1
102
RTVSPropertyOp60
 70
     1
102
RTVSPropertyOp61
 70
     1
102
RTVSPropertyOp62
 70
     1
  0
XRECORD
  5
2BF3
102
{ACAD_REACTORS
330
2BF2
102
}
330
2BF2
100
AcDbXrecord
280
     1
102
RTVSPost2010Prop28
280
     0
102
RTVSPost2010PropOp28
 70
     0
102
RTVSPost2010Prop29
280
     1
102
RTVSPost2010PropOp29
 70
     0
102
RTVSPost2010Prop30
280
     1
102
RTVSPost2010PropOp30
 70
     0
102
RTVSPost2010Prop31
280
     0
102
RTVSPost2010PropOp31
 70
     0
102
RTVSPost2010Prop32
280
     0
102
RTVSPost2010PropOp32
 70
     0
102
RTVSPost2010Prop33
280
     0
102
RTVSPost2010PropOp33
 70
     0
102
RTVSPost2010Prop34
280
     0
102
RTVSPost2010PropOp34
 70
     0
102
RTVSPost2010Prop35
280
     0
102
RTVSPost2010PropOp35
 70
     0
102
RTVSPost2010Prop36
280
     0
102
RTVSPost2010PropOp36
 70
     0
102
RTVSPost2010Prop37
 90
       50
102
RTVSPost2010PropOp37
 70
     0
102
RTVSPost2010Prop38
140
0.0
102
RTVSPost2010PropOp38
 70
     0
102
RTVSPost2010Prop39
140
1.0
102
RTVSPost2010PropOp39
 70
     0
102
RTVSPost2010Prop40
 90
        0
102
RTVSPost2010PropOp40
 70
     0
102
RTVSPost2010Prop41ColorIndex
 90
       18
102
RTVSPost2010Prop41ColorRGB
 90
        0
102
RTVSPost2010PropOp41
 70
     0
102
RTVSPost2010Prop42
 90
       50
102
RTVSPost2010PropOp42
 70
     0
102
RTVSPost2010Prop43
 90
        3
102
RTVSPost2010PropOp43
 70
     0
102
RTVSPost2010Prop44ColorIndex
 90
        5
102
RTVSPost2010Prop44ColorRGB
 90
      255
102
RTVSPost2010PropOp44
 70
     0
102
RTVSPost2010Prop45
280
     0
102
RTVSPost2010PropOp45
 70
     0
102
RTVSPost2010Prop46
 90
       50
102
RTVSPost2010PropOp46
 70
     0
102
RTVSPost2010Prop47
 90
       50
102
RTVSPost2010PropOp47
 70
     0
102
RTVSPost2010Prop48
 90
       50
102
RTVSPost2010PropOp48
 70
     0
102
RTVSPost2010Prop49
280
     0
102
RTVSPost2010PropOp49
 70
     0
102
RTVSPost2010Prop50
 90
       50
102
RTVSPost2010PropOp50
 70
     0
102
RTVSPost2010Prop51ColorIndex
 90
      256
102
RTVSPost2010Prop51ColorRGB
 90
-16777216
102
RTVSPost2010PropOp51
 70
     0
102
RTVSPost2010Prop52
140
1.0
102
RTVSPost2010PropOp52
 70
     0
102
RTVSPost2010Prop53
 90
        2
102
RTVSPost2010PropOp53
 70
     0
102
RTVSPost2010Prop54
  1
strokes_ogs.tif
102
RTVSPost2010PropOp54
 70
     0
102
RTVSPost2010Prop55
280
     0
102
RTVSPost2010PropOp55
 70
     0
102
RTVSPost2010Prop56
140
1.0
102
RTVSPost2010PropOp56
 70
     0
102
RTVSPost2010Prop57
140
1.0
102
RTVSPost2010PropOp57
 70
     0
102
RTVSPropertyOp0
 70
     0
102
RTVSPropertyOp1
 70
     0
102
RTVSPropertyOp2
 70
     0
102
RTVSPropertyOp3
 70
     0
102
RTVSPropertyOp4
 70
     0
102
RTVSPropertyOp5
 70
     0
102
RTVSPropertyOp6
 70
     0
102
RTVSPropertyOp7
 70
     0
102
RTVSPropertyOp8
 70
     0
102
RTVSPropertyOp9
 70
     0
102
RTVSPropertyOp10
 70
     0
102
RTVSPropertyOp11
 70
     0
102
RTVSPropertyOp12
 70
     0
102
RTVSPropertyOp13
 70
     0
102
RTVSPropertyOp14
 70
     2
102
RTVSPropertyOp15
 70
     0
102
RTVSPropertyOp16
 70
     0
102
RTVSPropertyOp17
 70
     0
102
RTVSPropertyOp18
 70
     0
102
RTVSPropertyOp19
 70
     0
102
RTVSPropertyOp20
 70
     0
102
RTVSPropertyOp21
 70
     0
102
RTVSPropertyOp22
 70
     0
102
RTVSPropertyOp23
 70
     0
102
RTVSPropertyOp24
 70
     0
102
RTVSPropertyOp25
 70
     0
102
RTVSPropertyOp26
 70
     0
102
RTVSPropertyOp27
 70
     0
102
RTVSPropertyOp28
 70
     0
102
RTVSPropertyOp29
 70
     0
102
RTVSPropertyOp30
 70
     0
102
RTVSPropertyOp31
 70
     0
102
RTVSPropertyOp32
 70
     0
102
RTVSPropertyOp33
 70
     0
102
RTVSPropertyOp34
 70
     0
102
RTVSPropertyOp35
 70
     0
102
RTVSPropertyOp36
 70
     0
102
RTVSPropertyOp37
 70
     0
102
RTVSPropertyOp38
 70
     0
102
RTVSPropertyOp39
 70
     0
102
RTVSPropertyOp40
 70
     0
102
RTVSPropertyOp41
 70
     0
102
RTVSPropertyOp42
 70
     0
102
RTVSPropertyOp43
 70
     0
102
RTVSPropertyOp44
 70
     0
102
RTVSPropertyOp45
 70
     0
102
RTVSPropertyOp46
 70
     0
102
RTVSPropertyOp47
 70
     0
102
RTVSPropertyOp48
 70
     0
102
RTVSPropertyOp49
 70
     0
102
RTVSPropertyOp50
 70
     0
102
RTVSPropertyOp51
 70
     0
102
RTVSPropertyOp52
 70
     0
102
RTVSPropertyOp53
 70
     0
102
RTVSPropertyOp54
 70
     0
102
RTVSPropertyOp55
 70
     0
102
RTVSPropertyOp56
 70
     0
102
RTVSPropertyOp57
 70
     0
102
RTVSPropertyOp58
 70
     0
102
RTVSPropertyOp59
 70
     0
102
RTVSPropertyOp60
 70
     0
102
RTVSPropertyOp61
 70
     0
102
RTVSPropertyOp62
 70
     0
  0
XRECORD
  5
2BE3
102
{ACAD_REACTORS
330
2BE2
102
}
330
2BE2
100
AcDbXrecord
280
     1
102
RTVSPost2010Prop28
280
     0
102
RTVSPost2010PropOp28
 70
     1
102
RTVSPost2010Prop29
280
     1
102
RTVSPost2010PropOp29
 70
     1
102
RTVSPost2010Prop30
280
     1
102
RTVSPost2010PropOp30
 70
     1
102
RTVSPost2010Prop31
280
     0
102
RTVSPost2010PropOp31
 70
     1
102
RTVSPost2010Prop32
280
     0
102
RTVSPost2010PropOp32
 70
     1
102
RTVSPost2010Prop33
280
     0
102
RTVSPost2010PropOp33
 70
     1
102
RTVSPost2010Prop34
280
     0
102
RTVSPost2010PropOp34
 70
     1
102
RTVSPost2010Prop35
280
     0
102
RTVSPost2010PropOp35
 70
     1
102
RTVSPost2010Prop36
280
     0
102
RTVSPost2010PropOp36
 70
     1
102
RTVSPost2010Prop37
 90
       50
102
RTVSPost2010PropOp37
 70
     1
102
RTVSPost2010Prop38
140
0.0
102
RTVSPost2010PropOp38
 70
     1
102
RTVSPost2010Prop39
140
1.0
102
RTVSPost2010PropOp39
 70
     1
102
RTVSPost2010Prop40
 90
        0
102
RTVSPost2010PropOp40
 70
     1
102
RTVSPost2010Prop41ColorIndex
 90
       18
102
RTVSPost2010Prop41ColorRGB
 90
        0
102
RTVSPost2010PropOp41
 70
     1
102
RTVSPost2010Prop42
 90
       50
102
RTVSPost2010PropOp42
 70
     1
102
RTVSPost2010Prop43
 90
        3
102
RTVSPost2010PropOp43
 70
     1
102
RTVSPost2010Prop44ColorIndex
 90
        5
102
RTVSPost2010Prop44ColorRGB
 90
      255
102
RTVSPost2010PropOp44
 70
     1
102
RTVSPost2010Prop45
280
     0
102
RTVSPost2010PropOp45
 70
     1
102
RTVSPost2010Prop46
 90
       50
102
RTVSPost2010PropOp46
 70
     1
102
RTVSPost2010Prop47
 90
       50
102
RTVSPost2010PropOp47
 70
     1
102
RTVSPost2010Prop48
 90
       50
102
RTVSPost2010PropOp48
 70
     1
102
RTVSPost2010Prop49
280
     0
102
RTVSPost2010PropOp49
 70
     1
102
RTVSPost2010Prop50
 90
       50
102
RTVSPost2010PropOp50
 70
     1
102
RTVSPost2010Prop51ColorIndex
 90
      256
102
RTVSPost2010Prop51ColorRGB
 90
-16777216
102
RTVSPost2010PropOp51
 70
     0
102
RTVSPost2010Prop52
140
1.0
102
RTVSPost2010PropOp52
 70
     0
102
RTVSPost2010Prop53
 90
        2
102
RTVSPost2010PropOp53
 70
     1
102
RTVSPost2010Prop54
  1
strokes_ogs.tif
102
RTVSPost2010PropOp54
 70
     1
102
RTVSPost2010Prop55
280
     0
102
RTVSPost2010PropOp55
 70
     1
102
RTVSPost2010Prop56
140
1.0
102
RTVSPost2010PropOp56
 70
     1
102
RTVSPost2010Prop57
140
1.0
102
RTVSPost2010PropOp57
 70
     1
102
RTVSPropertyOp0
 70
     1
102
RTVSPropertyOp1
 70
     1
102
RTVSPropertyOp2
 70
     1
102
RTVSPropertyOp3
 70
     1
102
RTVSPropertyOp4
 70
     1
102
RTVSPropertyOp5
 70
     1
102
RTVSPropertyOp6
 70
     1
102
RTVSPropertyOp7
 70
     1
102
RTVSPropertyOp8
 70
     1
102
RTVSPropertyOp9
 70
     1
102
RTVSPropertyOp10
 70
     1
102
RTVSPropertyOp11
 70
     1
102
RTVSPropertyOp12
 70
     1
102
RTVSPropertyOp13
 70
     1
102
RTVSPropertyOp14
 70
     1
102
RTVSPropertyOp15
 70
     1
102
RTVSPropertyOp16
 70
     1
102
RTVSPropertyOp17
 70
     1
102
RTVSPropertyOp18
 70
     1
102
RTVSPropertyOp19
 70
     1
102
RTVSPropertyOp20
 70
     1
102
RTVSPropertyOp21
 70
     1
102
RTVSPropertyOp22
 70
     1
102
RTVSPropertyOp23
 70
     1
102
RTVSPropertyOp24
 70
     1
102
RTVSPropertyOp25
 70
     1
102
RTVSPropertyOp26
 70
     1
102
RTVSPropertyOp27
 70
     1
102
RTVSPropertyOp28
 70
     1
102
RTVSPropertyOp29
 70
     1
102
RTVSPropertyOp30
 70
     1
102
RTVSPropertyOp31
 70
     1
102
RTVSPropertyOp32
 70
     1
102
RTVSPropertyOp33
 70
     1
102
RTVSPropertyOp34
 70
     1
102
RTVSPropertyOp35
 70
     1
102
RTVSPropertyOp36
 70
     1
102
RTVSPropertyOp37
 70
     1
102
RTVSPropertyOp38
 70
     1
102
RTVSPropertyOp39
 70
     1
102
RTVSPropertyOp40
 70
     1
102
RTVSPropertyOp41
 70
     1
102
RTVSPropertyOp42
 70
     1
102
RTVSPropertyOp43
 70
     1
102
RTVSPropertyOp44
 70
     1
102
RTVSPropertyOp45
 70
     1
102
RTVSPropertyOp46
 70
     1
102
RTVSPropertyOp47
 70
     1
102
RTVSPropertyOp48
 70
     1
102
RTVSPropertyOp49
 70
     1
102
RTVSPropertyOp50
 70
     1
102
RTVSPropertyOp51
 70
     0
102
RTVSPropertyOp52
 70
     0
102
RTVSPropertyOp53
 70
     1
102
RTVSPropertyOp54
 70
     1
102
RTVSPropertyOp55
 70
     1
102
RTVSPropertyOp56
 70
     1
102
RTVSPropertyOp57
 70
     1
102
RTVSPropertyOp58
 70
     1
102
RTVSPropertyOp59
 70
     1
102
RTVSPropertyOp60
 70
     1
102
RTVSPropertyOp61
 70
     1
102
RTVSPropertyOp62
 70
     1
  0
XRECORD
  5
2BF5
102
{ACAD_REACTORS
330
2BF4
102
}
330
2BF4
100
AcDbXrecord
280
     1
102
RTVSPost2010Prop28
280
     0
102
RTVSPost2010PropOp28
 70
     0
102
RTVSPost2010Prop29
280
     1
102
RTVSPost2010PropOp29
 70
     0
102
RTVSPost2010Prop30
280
     1
102
RTVSPost2010PropOp30
 70
     0
102
RTVSPost2010Prop31
280
     0
102
RTVSPost2010PropOp31
 70
     0
102
RTVSPost2010Prop32
280
     0
102
RTVSPost2010PropOp32
 70
     0
102
RTVSPost2010Prop33
280
     0
102
RTVSPost2010PropOp33
 70
     0
102
RTVSPost2010Prop34
280
     0
102
RTVSPost2010PropOp34
 70
     0
102
RTVSPost2010Prop35
280
     0
102
RTVSPost2010PropOp35
 70
     0
102
RTVSPost2010Prop36
280
     0
102
RTVSPost2010PropOp36
 70
     0
102
RTVSPost2010Prop37
 90
       50
102
RTVSPost2010PropOp37
 70
     0
102
RTVSPost2010Prop38
140
0.0
102
RTVSPost2010PropOp38
 70
     0
102
RTVSPost2010Prop39
140
1.0
102
RTVSPost2010PropOp39
 70
     0
102
RTVSPost2010Prop40
 90
        0
102
RTVSPost2010PropOp40
 70
     0
102
RTVSPost2010Prop41ColorIndex
 90
       18
102
RTVSPost2010Prop41ColorRGB
 90
        0
102
RTVSPost2010PropOp41
 70
     0
102
RTVSPost2010Prop42
 90
       50
102
RTVSPost2010PropOp42
 70
     0
102
RTVSPost2010Prop43
 90
        3
102
RTVSPost2010PropOp43
 70
     0
102
RTVSPost2010Prop44ColorIndex
 90
        5
102
RTVSPost2010Prop44ColorRGB
 90
      255
102
RTVSPost2010PropOp44
 70
     0
102
RTVSPost2010Prop45
280
     0
102
RTVSPost2010PropOp45
 70
     0
102
RTVSPost2010Prop46
 90
       50
102
RTVSPost2010PropOp46
 70
     0
102
RTVSPost2010Prop47
 90
       50
102
RTVSPost2010PropOp47
 70
     0
102
RTVSPost2010Prop48
 90
       50
102
RTVSPost2010PropOp48
 70
     0
102
RTVSPost2010Prop49
280
     0
102
RTVSPost2010PropOp49
 70
     0
102
RTVSPost2010Prop50
 90
       50
102
RTVSPost2010PropOp50
 70
     0
102
RTVSPost2010Prop51ColorIndex
 90
      256
102
RTVSPost2010Prop51ColorRGB
 90
-16777216
102
RTVSPost2010PropOp51
 70
     0
102
RTVSPost2010Prop52
140
1.0
102
RTVSPost2010PropOp52
 70
     0
102
RTVSPost2010Prop53
 90
        2
102
RTVSPost2010PropOp53
 70
     0
102
RTVSPost2010Prop54
  1
strokes_ogs.tif
102
RTVSPost2010PropOp54
 70
     0
102
RTVSPost2010Prop55
280
     0
102
RTVSPost2010PropOp55
 70
     0
102
RTVSPost2010Prop56
140
1.0
102
RTVSPost2010PropOp56
 70
     0
102
RTVSPost2010Prop57
140
1.0
102
RTVSPost2010PropOp57
 70
     0
102
RTVSPropertyOp0
 70
     0
102
RTVSPropertyOp1
 70
     0
102
RTVSPropertyOp2
 70
     0
102
RTVSPropertyOp3
 70
     0
102
RTVSPropertyOp4
 70
     0
102
RTVSPropertyOp5
 70
     0
102
RTVSPropertyOp6
 70
     0
102
RTVSPropertyOp7
 70
     0
102
RTVSPropertyOp8
 70
     0
102
RTVSPropertyOp9
 70
     0
102
RTVSPropertyOp10
 70
     0
102
RTVSPropertyOp11
 70
     0
102
RTVSPropertyOp12
 70
     0
102
RTVSPropertyOp13
 70
     0
102
RTVSPropertyOp14
 70
     2
102
RTVSPropertyOp15
 70
     0
102
RTVSPropertyOp16
 70
     0
102
RTVSPropertyOp17
 70
     0
102
RTVSPropertyOp18
 70
     0
102
RTVSPropertyOp19
 70
     0
102
RTVSPropertyOp20
 70
     0
102
RTVSPropertyOp21
 70
     0
102
RTVSPropertyOp22
 70
     0
102
RTVSPropertyOp23
 70
     0
102
RTVSPropertyOp24
 70
     0
102
RTVSPropertyOp25
 70
     0
102
RTVSPropertyOp26
 70
     0
102
RTVSPropertyOp27
 70
     0
102
RTVSPropertyOp28
 70
     0
102
RTVSPropertyOp29
 70
     0
102
RTVSPropertyOp30
 70
     0
102
RTVSPropertyOp31
 70
     0
102
RTVSPropertyOp32
 70
     0
102
RTVSPropertyOp33
 70
     0
102
RTVSPropertyOp34
 70
     0
102
RTVSPropertyOp35
 70
     0
102
RTVSPropertyOp36
 70
     0
102
RTVSPropertyOp37
 70
     0
102
RTVSPropertyOp38
 70
     0
102
RTVSPropertyOp39
 70
     0
102
RTVSPropertyOp40
 70
     0
102
RTVSPropertyOp41
 70
     0
102
RTVSPropertyOp42
 70
     0
102
RTVSPropertyOp43
 70
     0
102
RTVSPropertyOp44
 70
     0
102
RTVSPropertyOp45
 70
     0
102
RTVSPropertyOp46
 70
     0
102
RTVSPropertyOp47
 70
     0
102
RTVSPropertyOp48
 70
     0
102
RTVSPropertyOp49
 70
     0
102
RTVSPropertyOp50
 70
     0
102
RTVSPropertyOp51
 70
     0
102
RTVSPropertyOp52
 70
     0
102
RTVSPropertyOp53
 70
     0
102
RTVSPropertyOp54
 70
     0
102
RTVSPropertyOp55
 70
     0
102
RTVSPropertyOp56
 70
     0
102
RTVSPropertyOp57
 70
     0
102
RTVSPropertyOp58
 70
     0
102
RTVSPropertyOp59
 70
     0
102
RTVSPropertyOp60
 70
     0
102
RTVSPropertyOp61
 70
     0
102
RTVSPropertyOp62
 70
     0
  0
XRECORD
  5
2BDB
102
{ACAD_REACTORS
330
2BDA
102
}
330
2BDA
100
AcDbXrecord
280
     1
102
RTVSPost2010Prop28
280
     0
102
RTVSPost2010PropOp28
 70
     1
102
RTVSPost2010Prop29
280
     1
102
RTVSPost2010PropOp29
 70
     1
102
RTVSPost2010Prop30
280
     1
102
RTVSPost2010PropOp30
 70
     1
102
RTVSPost2010Prop31
280
     0
102
RTVSPost2010PropOp31
 70
     1
102
RTVSPost2010Prop32
280
     0
102
RTVSPost2010PropOp32
 70
     1
102
RTVSPost2010Prop33
280
     0
102
RTVSPost2010PropOp33
 70
     1
102
RTVSPost2010Prop34
280
     0
102
RTVSPost2010PropOp34
 70
     1
102
RTVSPost2010Prop35
280
     0
102
RTVSPost2010PropOp35
 70
     1
102
RTVSPost2010Prop36
280
     0
102
RTVSPost2010PropOp36
 70
     1
102
RTVSPost2010Prop37
 90
       50
102
RTVSPost2010PropOp37
 70
     1
102
RTVSPost2010Prop38
140
0.0
102
RTVSPost2010PropOp38
 70
     1
102
RTVSPost2010Prop39
140
1.0
102
RTVSPost2010PropOp39
 70
     1
102
RTVSPost2010Prop40
 90
        0
102
RTVSPost2010PropOp40
 70
     1
102
RTVSPost2010Prop41ColorIndex
 90
       18
102
RTVSPost2010Prop41ColorRGB
 90
        0
102
RTVSPost2010PropOp41
 70
     1
102
RTVSPost2010Prop42
 90
       50
102
RTVSPost2010PropOp42
 70
     1
102
RTVSPost2010Prop43
 90
        3
102
RTVSPost2010PropOp43
 70
     1
102
RTVSPost2010Prop44ColorIndex
 90
        5
102
RTVSPost2010Prop44ColorRGB
 90
      255
102
RTVSPost2010PropOp44
 70
     1
102
RTVSPost2010Prop45
280
     0
102
RTVSPost2010PropOp45
 70
     1
102
RTVSPost2010Prop46
 90
       50
102
RTVSPost2010PropOp46
 70
     1
102
RTVSPost2010Prop47
 90
       50
102
RTVSPost2010PropOp47
 70
     1
102
RTVSPost2010Prop48
 90
       50
102
RTVSPost2010PropOp48
 70
     1
102
RTVSPost2010Prop49
280
     0
102
RTVSPost2010PropOp49
 70
     1
102
RTVSPost2010Prop50
 90
       50
102
RTVSPost2010PropOp50
 70
     1
102
RTVSPost2010Prop51ColorIndex
 90
      256
102
RTVSPost2010Prop51ColorRGB
 90
-16777216
102
RTVSPost2010PropOp51
 70
     0
102
RTVSPost2010Prop52
140
1.0
102
RTVSPost2010PropOp52
 70
     0
102
RTVSPost2010Prop53
 90
        2
102
RTVSPost2010PropOp53
 70
     1
102
RTVSPost2010Prop54
  1
strokes_ogs.tif
102
RTVSPost2010PropOp54
 70
     1
102
RTVSPost2010Prop55
280
     0
102
RTVSPost2010PropOp55
 70
     1
102
RTVSPost2010Prop56
140
1.0
102
RTVSPost2010PropOp56
 70
     1
102
RTVSPost2010Prop57
140
1.0
102
RTVSPost2010PropOp57
 70
     1
102
RTVSPropertyOp0
 70
     1
102
RTVSPropertyOp1
 70
     1
102
RTVSPropertyOp2
 70
     1
102
RTVSPropertyOp3
 70
     1
102
RTVSPropertyOp4
 70
     1
102
RTVSPropertyOp5
 70
     1
102
RTVSPropertyOp6
 70
     1
102
RTVSPropertyOp7
 70
     1
102
RTVSPropertyOp8
 70
     1
102
RTVSPropertyOp9
 70
     1
102
RTVSPropertyOp10
 70
     1
102
RTVSPropertyOp11
 70
     1
102
RTVSPropertyOp12
 70
     1
102
RTVSPropertyOp13
 70
     1
102
RTVSPropertyOp14
 70
     1
102
RTVSPropertyOp15
 70
     1
102
RTVSPropertyOp16
 70
     1
102
RTVSPropertyOp17
 70
     1
102
RTVSPropertyOp18
 70
     1
102
RTVSPropertyOp19
 70
     1
102
RTVSPropertyOp20
 70
     1
102
RTVSPropertyOp21
 70
     1
102
RTVSPropertyOp22
 70
     1
102
RTVSPropertyOp23
 70
     1
102
RTVSPropertyOp24
 70
     1
102
RTVSPropertyOp25
 70
     1
102
RTVSPropertyOp26
 70
     1
102
RTVSPropertyOp27
 70
     1
102
RTVSPropertyOp28
 70
     1
102
RTVSPropertyOp29
 70
     1
102
RTVSPropertyOp30
 70
     1
102
RTVSPropertyOp31
 70
     1
102
RTVSPropertyOp32
 70
     1
102
RTVSPropertyOp33
 70
     1
102
RTVSPropertyOp34
 70
     1
102
RTVSPropertyOp35
 70
     1
102
RTVSPropertyOp36
 70
     1
102
RTVSPropertyOp37
 70
     1
102
RTVSPropertyOp38
 70
     1
102
RTVSPropertyOp39
 70
     1
102
RTVSPropertyOp40
 70
     1
102
RTVSPropertyOp41
 70
     1
102
RTVSPropertyOp42
 70
     1
102
RTVSPropertyOp43
 70
     1
102
RTVSPropertyOp44
 70
     1
102
RTVSPropertyOp45
 70
     1
102
RTVSPropertyOp46
 70
     1
102
RTVSPropertyOp47
 70
     1
102
RTVSPropertyOp48
 70
     1
102
RTVSPropertyOp49
 70
     1
102
RTVSPropertyOp50
 70
     1
102
RTVSPropertyOp51
 70
     0
102
RTVSPropertyOp52
 70
     0
102
RTVSPropertyOp53
 70
     1
102
RTVSPropertyOp54
 70
     1
102
RTVSPropertyOp55
 70
     1
102
RTVSPropertyOp56
 70
     1
102
RTVSPropertyOp57
 70
     1
102
RTVSPropertyOp58
 70
     1
102
RTVSPropertyOp59
 70
     1
102
RTVSPropertyOp60
 70
     1
102
RTVSPropertyOp61
 70
     1
102
RTVSPropertyOp62
 70
     1
  0
XRECORD
  5
2BF1
102
{ACAD_REACTORS
330
2BF0
102
}
330
2BF0
100
AcDbXrecord
280
     1
102
RTVSPost2010Prop28
280
     0
102
RTVSPost2010PropOp28
 70
     1
102
RTVSPost2010Prop29
280
     1
102
RTVSPost2010PropOp29
 70
     1
102
RTVSPost2010Prop30
280
     1
102
RTVSPost2010PropOp30
 70
     1
102
RTVSPost2010Prop31
280
     0
102
RTVSPost2010PropOp31
 70
     1
102
RTVSPost2010Prop32
280
     0
102
RTVSPost2010PropOp32
 70
     1
102
RTVSPost2010Prop33
280
     0
102
RTVSPost2010PropOp33
 70
     1
102
RTVSPost2010Prop34
280
     0
102
RTVSPost2010PropOp34
 70
     1
102
RTVSPost2010Prop35
280
     0
102
RTVSPost2010PropOp35
 70
     1
102
RTVSPost2010Prop36
280
     0
102
RTVSPost2010PropOp36
 70
     1
102
RTVSPost2010Prop37
 90
       50
102
RTVSPost2010PropOp37
 70
     1
102
RTVSPost2010Prop38
140
0.0
102
RTVSPost2010PropOp38
 70
     1
102
RTVSPost2010Prop39
140
1.0
102
RTVSPost2010PropOp39
 70
     1
102
RTVSPost2010Prop40
 90
        0
102
RTVSPost2010PropOp40
 70
     1
102
RTVSPost2010Prop41ColorIndex
 90
       18
102
RTVSPost2010Prop41ColorRGB
 90
        0
102
RTVSPost2010PropOp41
 70
     1
102
RTVSPost2010Prop42
 90
       50
102
RTVSPost2010PropOp42
 70
     1
102
RTVSPost2010Prop43
 90
        3
102
RTVSPost2010PropOp43
 70
     1
102
RTVSPost2010Prop44ColorIndex
 90
        5
102
RTVSPost2010Prop44ColorRGB
 90
      255
102
RTVSPost2010PropOp44
 70
     1
102
RTVSPost2010Prop45
280
     0
102
RTVSPost2010PropOp45
 70
     1
102
RTVSPost2010Prop46
 90
       50
102
RTVSPost2010PropOp46
 70
     1
102
RTVSPost2010Prop47
 90
       50
102
RTVSPost2010PropOp47
 70
     1
102
RTVSPost2010Prop48
 90
       50
102
RTVSPost2010PropOp48
 70
     1
102
RTVSPost2010Prop49
280
     0
102
RTVSPost2010PropOp49
 70
     1
102
RTVSPost2010Prop50
 90
       50
102
RTVSPost2010PropOp50
 70
     1
102
RTVSPost2010Prop51ColorIndex
 90
      256
102
RTVSPost2010Prop51ColorRGB
 90
-16777216
102
RTVSPost2010PropOp51
 70
     0
102
RTVSPost2010Prop52
140
1.0
102
RTVSPost2010PropOp52
 70
     0
102
RTVSPost2010Prop53
 90
        2
102
RTVSPost2010PropOp53
 70
     1
102
RTVSPost2010Prop54
  1
strokes_ogs.tif
102
RTVSPost2010PropOp54
 70
     1
102
RTVSPost2010Prop55
280
     0
102
RTVSPost2010PropOp55
 70
     1
102
RTVSPost2010Prop56
140
1.0
102
RTVSPost2010PropOp56
 70
     1
102
RTVSPost2010Prop57
140
1.0
102
RTVSPost2010PropOp57
 70
     1
102
RTVSPropertyOp0
 70
     1
102
RTVSPropertyOp1
 70
     1
102
RTVSPropertyOp2
 70
     1
102
RTVSPropertyOp3
 70
     1
102
RTVSPropertyOp4
 70
     1
102
RTVSPropertyOp5
 70
     1
102
RTVSPropertyOp6
 70
     1
102
RTVSPropertyOp7
 70
     1
102
RTVSPropertyOp8
 70
     1
102
RTVSPropertyOp9
 70
     1
102
RTVSPropertyOp10
 70
     1
102
RTVSPropertyOp11
 70
     1
102
RTVSPropertyOp12
 70
     1
102
RTVSPropertyOp13
 70
     1
102
RTVSPropertyOp14
 70
     1
102
RTVSPropertyOp15
 70
     1
102
RTVSPropertyOp16
 70
     1
102
RTVSPropertyOp17
 70
     1
102
RTVSPropertyOp18
 70
     1
102
RTVSPropertyOp19
 70
     1
102
RTVSPropertyOp20
 70
     1
102
RTVSPropertyOp21
 70
     1
102
RTVSPropertyOp22
 70
     1
102
RTVSPropertyOp23
 70
     1
102
RTVSPropertyOp24
 70
     1
102
RTVSPropertyOp25
 70
     1
102
RTVSPropertyOp26
 70
     1
102
RTVSPropertyOp27
 70
     1
102
RTVSPropertyOp28
 70
     1
102
RTVSPropertyOp29
 70
     1
102
RTVSPropertyOp30
 70
     1
102
RTVSPropertyOp31
 70
     1
102
RTVSPropertyOp32
 70
     1
102
RTVSPropertyOp33
 70
     1
102
RTVSPropertyOp34
 70
     1
102
RTVSPropertyOp35
 70
     1
102
RTVSPropertyOp36
 70
     1
102
RTVSPropertyOp37
 70
     1
102
RTVSPropertyOp38
 70
     1
102
RTVSPropertyOp39
 70
     1
102
RTVSPropertyOp40
 70
     1
102
RTVSPropertyOp41
 70
     1
102
RTVSPropertyOp42
 70
     1
102
RTVSPropertyOp43
 70
     1
102
RTVSPropertyOp44
 70
     1
102
RTVSPropertyOp45
 70
     1
102
RTVSPropertyOp46
 70
     1
102
RTVSPropertyOp47
 70
     1
102
RTVSPropertyOp48
 70
     1
102
RTVSPropertyOp49
 70
     1
102
RTVSPropertyOp50
 70
     1
102
RTVSPropertyOp51
 70
     0
102
RTVSPropertyOp52
 70
     0
102
RTVSPropertyOp53
 70
     1
102
RTVSPropertyOp54
 70
     1
102
RTVSPropertyOp55
 70
     1
102
RTVSPropertyOp56
 70
     1
102
RTVSPropertyOp57
 70
     1
102
RTVSPropertyOp58
 70
     1
102
RTVSPropertyOp59
 70
     1
102
RTVSPropertyOp60
 70
     1
102
RTVSPropertyOp61
 70
     1
102
RTVSPropertyOp62
 70
     1
  0
XRECORD
  5
2BEF
102
{ACAD_REACTORS
330
2BEE
102
}
330
2BEE
100
AcDbXrecord
280
     1
102
RTVSPost2010Prop28
280
     0
102
RTVSPost2010PropOp28
 70
     1
102
RTVSPost2010Prop29
280
     1
102
RTVSPost2010PropOp29
 70
     1
102
RTVSPost2010Prop30
280
     1
102
RTVSPost2010PropOp30
 70
     1
102
RTVSPost2010Prop31
280
     0
102
RTVSPost2010PropOp31
 70
     1
102
RTVSPost2010Prop32
280
     0
102
RTVSPost2010PropOp32
 70
     1
102
RTVSPost2010Prop33
280
     0
102
RTVSPost2010PropOp33
 70
     1
102
RTVSPost2010Prop34
280
     0
102
RTVSPost2010PropOp34
 70
     1
102
RTVSPost2010Prop35
280
     0
102
RTVSPost2010PropOp35
 70
     1
102
RTVSPost2010Prop36
280
     0
102
RTVSPost2010PropOp36
 70
     1
102
RTVSPost2010Prop37
 90
       50
102
RTVSPost2010PropOp37
 70
     1
102
RTVSPost2010Prop38
140
0.0
102
RTVSPost2010PropOp38
 70
     1
102
RTVSPost2010Prop39
140
1.0
102
RTVSPost2010PropOp39
 70
     1
102
RTVSPost2010Prop40
 90
        0
102
RTVSPost2010PropOp40
 70
     1
102
RTVSPost2010Prop41ColorIndex
 90
       18
102
RTVSPost2010Prop41ColorRGB
 90
        0
102
RTVSPost2010PropOp41
 70
     1
102
RTVSPost2010Prop42
 90
       50
102
RTVSPost2010PropOp42
 70
     1
102
RTVSPost2010Prop43
 90
        3
102
RTVSPost2010PropOp43
 70
     1
102
RTVSPost2010Prop44ColorIndex
 90
        5
102
RTVSPost2010Prop44ColorRGB
 90
      255
102
RTVSPost2010PropOp44
 70
     1
102
RTVSPost2010Prop45
280
     0
102
RTVSPost2010PropOp45
 70
     1
102
RTVSPost2010Prop46
 90
       50
102
RTVSPost2010PropOp46
 70
     1
102
RTVSPost2010Prop47
 90
       50
102
RTVSPost2010PropOp47
 70
     1
102
RTVSPost2010Prop48
 90
       50
102
RTVSPost2010PropOp48
 70
     1
102
RTVSPost2010Prop49
280
     0
102
RTVSPost2010PropOp49
 70
     1
102
RTVSPost2010Prop50
 90
       50
102
RTVSPost2010PropOp50
 70
     1
102
RTVSPost2010Prop51ColorIndex
 90
      256
102
RTVSPost2010Prop51ColorRGB
 90
-16777216
102
RTVSPost2010PropOp51
 70
     0
102
RTVSPost2010Prop52
140
1.0
102
RTVSPost2010PropOp52
 70
     0
102
RTVSPost2010Prop53
 90
        2
102
RTVSPost2010PropOp53
 70
     1
102
RTVSPost2010Prop54
  1
strokes_ogs.tif
102
RTVSPost2010PropOp54
 70
     1
102
RTVSPost2010Prop55
280
     0
102
RTVSPost2010PropOp55
 70
     1
102
RTVSPost2010Prop56
140
1.0
102
RTVSPost2010PropOp56
 70
     1
102
RTVSPost2010Prop57
140
1.0
102
RTVSPost2010PropOp57
 70
     1
102
RTVSPropertyOp0
 70
     1
102
RTVSPropertyOp1
 70
     1
102
RTVSPropertyOp2
 70
     1
102
RTVSPropertyOp3
 70
     1
102
RTVSPropertyOp4
 70
     1
102
RTVSPropertyOp5
 70
     1
102
RTVSPropertyOp6
 70
     1
102
RTVSPropertyOp7
 70
     1
102
RTVSPropertyOp8
 70
     1
102
RTVSPropertyOp9
 70
     1
102
RTVSPropertyOp10
 70
     1
102
RTVSPropertyOp11
 70
     1
102
RTVSPropertyOp12
 70
     1
102
RTVSPropertyOp13
 70
     1
102
RTVSPropertyOp14
 70
     1
102
RTVSPropertyOp15
 70
     1
102
RTVSPropertyOp16
 70
     1
102
RTVSPropertyOp17
 70
     1
102
RTVSPropertyOp18
 70
     1
102
RTVSPropertyOp19
 70
     1
102
RTVSPropertyOp20
 70
     1
102
RTVSPropertyOp21
 70
     1
102
RTVSPropertyOp22
 70
     1
102
RTVSPropertyOp23
 70
     1
102
RTVSPropertyOp24
 70
     1
102
RTVSPropertyOp25
 70
     1
102
RTVSPropertyOp26
 70
     1
102
RTVSPropertyOp27
 70
     1
102
RTVSPropertyOp28
 70
     1
102
RTVSPropertyOp29
 70
     1
102
RTVSPropertyOp30
 70
     1
102
RTVSPropertyOp31
 70
     1
102
RTVSPropertyOp32
 70
     1
102
RTVSPropertyOp33
 70
     1
102
RTVSPropertyOp34
 70
     1
102
RTVSPropertyOp35
 70
     1
102
RTVSPropertyOp36
 70
     1
102
RTVSPropertyOp37
 70
     1
102
RTVSPropertyOp38
 70
     1
102
RTVSPropertyOp39
 70
     1
102
RTVSPropertyOp40
 70
     1
102
RTVSPropertyOp41
 70
     1
102
RTVSPropertyOp42
 70
     1
102
RTVSPropertyOp43
 70
     1
102
RTVSPropertyOp44
 70
     1
102
RTVSPropertyOp45
 70
     1
102
RTVSPropertyOp46
 70
     1
102
RTVSPropertyOp47
 70
     1
102
RTVSPropertyOp48
 70
     1
102
RTVSPropertyOp49
 70
     1
102
RTVSPropertyOp50
 70
     1
102
RTVSPropertyOp51
 70
     0
102
RTVSPropertyOp52
 70
     0
102
RTVSPropertyOp53
 70
     1
102
RTVSPropertyOp54
 70
     1
102
RTVSPropertyOp55
 70
     1
102
RTVSPropertyOp56
 70
     1
102
RTVSPropertyOp57
 70
     1
102
RTVSPropertyOp58
 70
     1
102
RTVSPropertyOp59
 70
     1
102
RTVSPropertyOp60
 70
     1
102
RTVSPropertyOp61
 70
     1
102
RTVSPropertyOp62
 70
     1
  0
XRECORD
  5
2BE9
102
{ACAD_REACTORS
330
2BE8
102
}
330
2BE8
100
AcDbXrecord
280
     1
102
RTVSPost2010Prop28
280
     0
102
RTVSPost2010PropOp28
 70
     1
102
RTVSPost2010Prop29
280
     1
102
RTVSPost2010PropOp29
 70
     1
102
RTVSPost2010Prop30
280
     1
102
RTVSPost2010PropOp30
 70
     1
102
RTVSPost2010Prop31
280
     0
102
RTVSPost2010PropOp31
 70
     1
102
RTVSPost2010Prop32
280
     0
102
RTVSPost2010PropOp32
 70
     1
102
RTVSPost2010Prop33
280
     0
102
RTVSPost2010PropOp33
 70
     1
102
RTVSPost2010Prop34
280
     0
102
RTVSPost2010PropOp34
 70
     1
102
RTVSPost2010Prop35
280
     0
102
RTVSPost2010PropOp35
 70
     1
102
RTVSPost2010Prop36
280
     0
102
RTVSPost2010PropOp36
 70
     1
102
RTVSPost2010Prop37
 90
       50
102
RTVSPost2010PropOp37
 70
     1
102
RTVSPost2010Prop38
140
0.0
102
RTVSPost2010PropOp38
 70
     1
102
RTVSPost2010Prop39
140
1.0
102
RTVSPost2010PropOp39
 70
     1
102
RTVSPost2010Prop40
 90
        0
102
RTVSPost2010PropOp40
 70
     1
102
RTVSPost2010Prop41ColorIndex
 90
       18
102
RTVSPost2010Prop41ColorRGB
 90
        0
102
RTVSPost2010PropOp41
 70
     1
102
RTVSPost2010Prop42
 90
       50
102
RTVSPost2010PropOp42
 70
     1
102
RTVSPost2010Prop43
 90
        3
102
RTVSPost2010PropOp43
 70
     1
102
RTVSPost2010Prop44ColorIndex
 90
        5
102
RTVSPost2010Prop44ColorRGB
 90
      255
102
RTVSPost2010PropOp44
 70
     1
102
RTVSPost2010Prop45
280
     0
102
RTVSPost2010PropOp45
 70
     1
102
RTVSPost2010Prop46
 90
       50
102
RTVSPost2010PropOp46
 70
     1
102
RTVSPost2010Prop47
 90
       50
102
RTVSPost2010PropOp47
 70
     1
102
RTVSPost2010Prop48
 90
       50
102
RTVSPost2010PropOp48
 70
     1
102
RTVSPost2010Prop49
280
     0
102
RTVSPost2010PropOp49
 70
     1
102
RTVSPost2010Prop50
 90
       50
102
RTVSPost2010PropOp50
 70
     1
102
RTVSPost2010Prop51ColorIndex
 90
      256
102
RTVSPost2010Prop51ColorRGB
 90
-16777216
102
RTVSPost2010PropOp51
 70
     0
102
RTVSPost2010Prop52
140
1.0
102
RTVSPost2010PropOp52
 70
     0
102
RTVSPost2010Prop53
 90
        2
102
RTVSPost2010PropOp53
 70
     1
102
RTVSPost2010Prop54
  1
strokes_ogs.tif
102
RTVSPost2010PropOp54
 70
     1
102
RTVSPost2010Prop55
280
     0
102
RTVSPost2010PropOp55
 70
     1
102
RTVSPost2010Prop56
140
1.0
102
RTVSPost2010PropOp56
 70
     1
102
RTVSPost2010Prop57
140
1.0
102
RTVSPost2010PropOp57
 70
     1
102
RTVSPropertyOp0
 70
     1
102
RTVSPropertyOp1
 70
     1
102
RTVSPropertyOp2
 70
     1
102
RTVSPropertyOp3
 70
     1
102
RTVSPropertyOp4
 70
     1
102
RTVSPropertyOp5
 70
     1
102
RTVSPropertyOp6
 70
     1
102
RTVSPropertyOp7
 70
     1
102
RTVSPropertyOp8
 70
     1
102
RTVSPropertyOp9
 70
     1
102
RTVSPropertyOp10
 70
     1
102
RTVSPropertyOp11
 70
     1
102
RTVSPropertyOp12
 70
     1
102
RTVSPropertyOp13
 70
     1
102
RTVSPropertyOp14
 70
     1
102
RTVSPropertyOp15
 70
     1
102
RTVSPropertyOp16
 70
     1
102
RTVSPropertyOp17
 70
     1
102
RTVSPropertyOp18
 70
     1
102
RTVSPropertyOp19
 70
     1
102
RTVSPropertyOp20
 70
     1
102
RTVSPropertyOp21
 70
     1
102
RTVSPropertyOp22
 70
     1
102
RTVSPropertyOp23
 70
     1
102
RTVSPropertyOp24
 70
     1
102
RTVSPropertyOp25
 70
     1
102
RTVSPropertyOp26
 70
     1
102
RTVSPropertyOp27
 70
     1
102
RTVSPropertyOp28
 70
     1
102
RTVSPropertyOp29
 70
     1
102
RTVSPropertyOp30
 70
     1
102
RTVSPropertyOp31
 70
     1
102
RTVSPropertyOp32
 70
     1
102
RTVSPropertyOp33
 70
     1
102
RTVSPropertyOp34
 70
     1
102
RTVSPropertyOp35
 70
     1
102
RTVSPropertyOp36
 70
     1
102
RTVSPropertyOp37
 70
     1
102
RTVSPropertyOp38
 70
     1
102
RTVSPropertyOp39
 70
     1
102
RTVSPropertyOp40
 70
     1
102
RTVSPropertyOp41
 70
     1
102
RTVSPropertyOp42
 70
     1
102
RTVSPropertyOp43
 70
     1
102
RTVSPropertyOp44
 70
     1
102
RTVSPropertyOp45
 70
     1
102
RTVSPropertyOp46
 70
     1
102
RTVSPropertyOp47
 70
     1
102
RTVSPropertyOp48
 70
     1
102
RTVSPropertyOp49
 70
     1
102
RTVSPropertyOp50
 70
     1
102
RTVSPropertyOp51
 70
     0
102
RTVSPropertyOp52
 70
     0
102
RTVSPropertyOp53
 70
     1
102
RTVSPropertyOp54
 70
     1
102
RTVSPropertyOp55
 70
     1
102
RTVSPropertyOp56
 70
     1
102
RTVSPropertyOp57
 70
     1
102
RTVSPropertyOp58
 70
     1
102
RTVSPropertyOp59
 70
     1
102
RTVSPropertyOp60
 70
     1
102
RTVSPropertyOp61
 70
     1
102
RTVSPropertyOp62
 70
     1
  0
XRECORD
  5
2BEB
102
{ACAD_REACTORS
330
2BEA
102
}
330
2BEA
100
AcDbXrecord
280
     1
102
RTVSPost2010Prop28
280
     0
102
RTVSPost2010PropOp28
 70
     1
102
RTVSPost2010Prop29
280
     1
102
RTVSPost2010PropOp29
 70
     1
102
RTVSPost2010Prop30
280
     1
102
RTVSPost2010PropOp30
 70
     1
102
RTVSPost2010Prop31
280
     0
102
RTVSPost2010PropOp31
 70
     1
102
RTVSPost2010Prop32
280
     0
102
RTVSPost2010PropOp32
 70
     1
102
RTVSPost2010Prop33
280
     0
102
RTVSPost2010PropOp33
 70
     1
102
RTVSPost2010Prop34
280
     0
102
RTVSPost2010PropOp34
 70
     1
102
RTVSPost2010Prop35
280
     0
102
RTVSPost2010PropOp35
 70
     1
102
RTVSPost2010Prop36
280
     0
102
RTVSPost2010PropOp36
 70
     1
102
RTVSPost2010Prop37
 90
       50
102
RTVSPost2010PropOp37
 70
     1
102
RTVSPost2010Prop38
140
0.0
102
RTVSPost2010PropOp38
 70
     1
102
RTVSPost2010Prop39
140
1.0
102
RTVSPost2010PropOp39
 70
     1
102
RTVSPost2010Prop40
 90
        0
102
RTVSPost2010PropOp40
 70
     1
102
RTVSPost2010Prop41ColorIndex
 90
       18
102
RTVSPost2010Prop41ColorRGB
 90
        0
102
RTVSPost2010PropOp41
 70
     1
102
RTVSPost2010Prop42
 90
       50
102
RTVSPost2010PropOp42
 70
     1
102
RTVSPost2010Prop43
 90
        3
102
RTVSPost2010PropOp43
 70
     1
102
RTVSPost2010Prop44ColorIndex
 90
        5
102
RTVSPost2010Prop44ColorRGB
 90
      255
102
RTVSPost2010PropOp44
 70
     1
102
RTVSPost2010Prop45
280
     0
102
RTVSPost2010PropOp45
 70
     1
102
RTVSPost2010Prop46
 90
       50
102
RTVSPost2010PropOp46
 70
     1
102
RTVSPost2010Prop47
 90
       50
102
RTVSPost2010PropOp47
 70
     1
102
RTVSPost2010Prop48
 90
       50
102
RTVSPost2010PropOp48
 70
     1
102
RTVSPost2010Prop49
280
     0
102
RTVSPost2010PropOp49
 70
     1
102
RTVSPost2010Prop50
 90
       50
102
RTVSPost2010PropOp50
 70
     1
102
RTVSPost2010Prop51ColorIndex
 90
      256
102
RTVSPost2010Prop51ColorRGB
 90
-16777216
102
RTVSPost2010PropOp51
 70
     0
102
RTVSPost2010Prop52
140
1.0
102
RTVSPost2010PropOp52
 70
     0
102
RTVSPost2010Prop53
 90
        2
102
RTVSPost2010PropOp53
 70
     1
102
RTVSPost2010Prop54
  1
strokes_ogs.tif
102
RTVSPost2010PropOp54
 70
     1
102
RTVSPost2010Prop55
280
     0
102
RTVSPost2010PropOp55
 70
     1
102
RTVSPost2010Prop56
140
1.0
102
RTVSPost2010PropOp56
 70
     1
102
RTVSPost2010Prop57
140
1.0
102
RTVSPost2010PropOp57
 70
     1
102
RTVSPropertyOp0
 70
     1
102
RTVSPropertyOp1
 70
     1
102
RTVSPropertyOp2
 70
     1
102
RTVSPropertyOp3
 70
     1
102
RTVSPropertyOp4
 70
     1
102
RTVSPropertyOp5
 70
     1
102
RTVSPropertyOp6
 70
     1
102
RTVSPropertyOp7
 70
     1
102
RTVSPropertyOp8
 70
     1
102
RTVSPropertyOp9
 70
     1
102
RTVSPropertyOp10
 70
     1
102
RTVSPropertyOp11
 70
     1
102
RTVSPropertyOp12
 70
     1
102
RTVSPropertyOp13
 70
     1
102
RTVSPropertyOp14
 70
     1
102
RTVSPropertyOp15
 70
     1
102
RTVSPropertyOp16
 70
     1
102
RTVSPropertyOp17
 70
     1
102
RTVSPropertyOp18
 70
     1
102
RTVSPropertyOp19
 70
     1
102
RTVSPropertyOp20
 70
     1
102
RTVSPropertyOp21
 70
     1
102
RTVSPropertyOp22
 70
     1
102
RTVSPropertyOp23
 70
     1
102
RTVSPropertyOp24
 70
     1
102
RTVSPropertyOp25
 70
     1
102
RTVSPropertyOp26
 70
     1
102
RTVSPropertyOp27
 70
     1
102
RTVSPropertyOp28
 70
     1
102
RTVSPropertyOp29
 70
     1
102
RTVSPropertyOp30
 70
     1
102
RTVSPropertyOp31
 70
     1
102
RTVSPropertyOp32
 70
     1
102
RTVSPropertyOp33
 70
     1
102
RTVSPropertyOp34
 70
     1
102
RTVSPropertyOp35
 70
     1
102
RTVSPropertyOp36
 70
     1
102
RTVSPropertyOp37
 70
     1
102
RTVSPropertyOp38
 70
     1
102
RTVSPropertyOp39
 70
     1
102
RTVSPropertyOp40
 70
     1
102
RTVSPropertyOp41
 70
     1
102
RTVSPropertyOp42
 70
     1
102
RTVSPropertyOp43
 70
     1
102
RTVSPropertyOp44
 70
     1
102
RTVSPropertyOp45
 70
     1
102
RTVSPropertyOp46
 70
     1
102
RTVSPropertyOp47
 70
     1
102
RTVSPropertyOp48
 70
     1
102
RTVSPropertyOp49
 70
     1
102
RTVSPropertyOp50
 70
     1
102
RTVSPropertyOp51
 70
     0
102
RTVSPropertyOp52
 70
     0
102
RTVSPropertyOp53
 70
     1
102
RTVSPropertyOp54
 70
     1
102
RTVSPropertyOp55
 70
     1
102
RTVSPropertyOp56
 70
     1
102
RTVSPropertyOp57
 70
     1
102
RTVSPropertyOp58
 70
     1
102
RTVSPropertyOp59
 70
     1
102
RTVSPropertyOp60
 70
     1
102
RTVSPropertyOp61
 70
     1
102
RTVSPropertyOp62
 70
     1
  0
XRECORD
  5
2BE1
102
{ACAD_REACTORS
330
2BE0
102
}
330
2BE0
100
AcDbXrecord
280
     1
102
RTVSPost2010Prop28
280
     0
102
RTVSPost2010PropOp28
 70
     1
102
RTVSPost2010Prop29
280
     1
102
RTVSPost2010PropOp29
 70
     1
102
RTVSPost2010Prop30
280
     1
102
RTVSPost2010PropOp30
 70
     1
102
RTVSPost2010Prop31
280
     0
102
RTVSPost2010PropOp31
 70
     1
102
RTVSPost2010Prop32
280
     0
102
RTVSPost2010PropOp32
 70
     1
102
RTVSPost2010Prop33
280
     0
102
RTVSPost2010PropOp33
 70
     1
102
RTVSPost2010Prop34
280
     0
102
RTVSPost2010PropOp34
 70
     1
102
RTVSPost2010Prop35
280
     0
102
RTVSPost2010PropOp35
 70
     1
102
RTVSPost2010Prop36
280
     0
102
RTVSPost2010PropOp36
 70
     1
102
RTVSPost2010Prop37
 90
       50
102
RTVSPost2010PropOp37
 70
     1
102
RTVSPost2010Prop38
140
0.0
102
RTVSPost2010PropOp38
 70
     1
102
RTVSPost2010Prop39
140
1.0
102
RTVSPost2010PropOp39
 70
     1
102
RTVSPost2010Prop40
 90
        0
102
RTVSPost2010PropOp40
 70
     1
102
RTVSPost2010Prop41ColorIndex
 90
       18
102
RTVSPost2010Prop41ColorRGB
 90
        0
102
RTVSPost2010PropOp41
 70
     1
102
RTVSPost2010Prop42
 90
       50
102
RTVSPost2010PropOp42
 70
     1
102
RTVSPost2010Prop43
 90
        3
102
RTVSPost2010PropOp43
 70
     1
102
RTVSPost2010Prop44ColorIndex
 90
        5
102
RTVSPost2010Prop44ColorRGB
 90
      255
102
RTVSPost2010PropOp44
 70
     1
102
RTVSPost2010Prop45
280
     0
102
RTVSPost2010PropOp45
 70
     1
102
RTVSPost2010Prop46
 90
       50
102
RTVSPost2010PropOp46
 70
     1
102
RTVSPost2010Prop47
 90
       50
102
RTVSPost2010PropOp47
 70
     1
102
RTVSPost2010Prop48
 90
       50
102
RTVSPost2010PropOp48
 70
     1
102
RTVSPost2010Prop49
280
     0
102
RTVSPost2010PropOp49
 70
     1
102
RTVSPost2010Prop50
 90
       50
102
RTVSPost2010PropOp50
 70
     1
102
RTVSPost2010Prop51ColorIndex
 90
      256
102
RTVSPost2010Prop51ColorRGB
 90
-16777216
102
RTVSPost2010PropOp51
 70
     0
102
RTVSPost2010Prop52
140
1.0
102
RTVSPost2010PropOp52
 70
     0
102
RTVSPost2010Prop53
 90
        2
102
RTVSPost2010PropOp53
 70
     1
102
RTVSPost2010Prop54
  1
strokes_ogs.tif
102
RTVSPost2010PropOp54
 70
     1
102
RTVSPost2010Prop55
280
     0
102
RTVSPost2010PropOp55
 70
     1
102
RTVSPost2010Prop56
140
1.0
102
RTVSPost2010PropOp56
 70
     1
102
RTVSPost2010Prop57
140
1.0
102
RTVSPost2010PropOp57
 70
     1
102
RTVSPropertyOp0
 70
     1
102
RTVSPropertyOp1
 70
     1
102
RTVSPropertyOp2
 70
     1
102
RTVSPropertyOp3
 70
     1
102
RTVSPropertyOp4
 70
     1
102
RTVSPropertyOp5
 70
     1
102
RTVSPropertyOp6
 70
     1
102
RTVSPropertyOp7
 70
     1
102
RTVSPropertyOp8
 70
     1
102
RTVSPropertyOp9
 70
     1
102
RTVSPropertyOp10
 70
     1
102
RTVSPropertyOp11
 70
     1
102
RTVSPropertyOp12
 70
     1
102
RTVSPropertyOp13
 70
     1
102
RTVSPropertyOp14
 70
     1
102
RTVSPropertyOp15
 70
     1
102
RTVSPropertyOp16
 70
     1
102
RTVSPropertyOp17
 70
     1
102
RTVSPropertyOp18
 70
     1
102
RTVSPropertyOp19
 70
     1
102
RTVSPropertyOp20
 70
     1
102
RTVSPropertyOp21
 70
     1
102
RTVSPropertyOp22
 70
     1
102
RTVSPropertyOp23
 70
     1
102
RTVSPropertyOp24
 70
     1
102
RTVSPropertyOp25
 70
     1
102
RTVSPropertyOp26
 70
     1
102
RTVSPropertyOp27
 70
     1
102
RTVSPropertyOp28
 70
     1
102
RTVSPropertyOp29
 70
     1
102
RTVSPropertyOp30
 70
     1
102
RTVSPropertyOp31
 70
     1
102
RTVSPropertyOp32
 70
     1
102
RTVSPropertyOp33
 70
     1
102
RTVSPropertyOp34
 70
     1
102
RTVSPropertyOp35
 70
     1
102
RTVSPropertyOp36
 70
     1
102
RTVSPropertyOp37
 70
     1
102
RTVSPropertyOp38
 70
     1
102
RTVSPropertyOp39
 70
     1
102
RTVSPropertyOp40
 70
     1
102
RTVSPropertyOp41
 70
     1
102
RTVSPropertyOp42
 70
     1
102
RTVSPropertyOp43
 70
     1
102
RTVSPropertyOp44
 70
     1
102
RTVSPropertyOp45
 70
     1
102
RTVSPropertyOp46
 70
     1
102
RTVSPropertyOp47
 70
     1
102
RTVSPropertyOp48
 70
     1
102
RTVSPropertyOp49
 70
     1
102
RTVSPropertyOp50
 70
     1
102
RTVSPropertyOp51
 70
     0
102
RTVSPropertyOp52
 70
     0
102
RTVSPropertyOp53
 70
     1
102
RTVSPropertyOp54
 70
     1
102
RTVSPropertyOp55
 70
     1
102
RTVSPropertyOp56
 70
     1
102
RTVSPropertyOp57
 70
     1
102
RTVSPropertyOp58
 70
     1
102
RTVSPropertyOp59
 70
     1
102
RTVSPropertyOp60
 70
     1
102
RTVSPropertyOp61
 70
     1
102
RTVSPropertyOp62
 70
     1
  0
XRECORD
  5
2BD5
102
{ACAD_REACTORS
330
2BD4
102
}
330
2BD4
100
AcDbXrecord
280
     1
102
RTVSPost2010Prop28
280
     0
102
RTVSPost2010PropOp28
 70
     1
102
RTVSPost2010Prop29
280
     1
102
RTVSPost2010PropOp29
 70
     1
102
RTVSPost2010Prop30
280
     1
102
RTVSPost2010PropOp30
 70
     1
102
RTVSPost2010Prop31
280
     0
102
RTVSPost2010PropOp31
 70
     1
102
RTVSPost2010Prop32
280
     0
102
RTVSPost2010PropOp32
 70
     1
102
RTVSPost2010Prop33
280
     0
102
RTVSPost2010PropOp33
 70
     1
102
RTVSPost2010Prop34
280
     0
102
RTVSPost2010PropOp34
 70
     1
102
RTVSPost2010Prop35
280
     0
102
RTVSPost2010PropOp35
 70
     1
102
RTVSPost2010Prop36
280
     0
102
RTVSPost2010PropOp36
 70
     1
102
RTVSPost2010Prop37
 90
       50
102
RTVSPost2010PropOp37
 70
     1
102
RTVSPost2010Prop38
140
0.0
102
RTVSPost2010PropOp38
 70
     1
102
RTVSPost2010Prop39
140
1.0
102
RTVSPost2010PropOp39
 70
     1
102
RTVSPost2010Prop40
 90
        0
102
RTVSPost2010PropOp40
 70
     1
102
RTVSPost2010Prop41ColorIndex
 90
       18
102
RTVSPost2010Prop41ColorRGB
 90
        0
102
RTVSPost2010PropOp41
 70
     1
102
RTVSPost2010Prop42
 90
       50
102
RTVSPost2010PropOp42
 70
     1
102
RTVSPost2010Prop43
 90
        3
102
RTVSPost2010PropOp43
 70
     1
102
RTVSPost2010Prop44ColorIndex
 90
        5
102
RTVSPost2010Prop44ColorRGB
 90
      255
102
RTVSPost2010PropOp44
 70
     1
102
RTVSPost2010Prop45
280
     0
102
RTVSPost2010PropOp45
 70
     1
102
RTVSPost2010Prop46
 90
       50
102
RTVSPost2010PropOp46
 70
     1
102
RTVSPost2010Prop47
 90
       50
102
RTVSPost2010PropOp47
 70
     1
102
RTVSPost2010Prop48
 90
       50
102
RTVSPost2010PropOp48
 70
     1
102
RTVSPost2010Prop49
280
     0
102
RTVSPost2010PropOp49
 70
     1
102
RTVSPost2010Prop50
 90
       50
102
RTVSPost2010PropOp50
 70
     1
102
RTVSPost2010Prop51ColorIndex
 90
      256
102
RTVSPost2010Prop51ColorRGB
 90
-16777216
102
RTVSPost2010PropOp51
 70
     0
102
RTVSPost2010Prop52
140
1.0
102
RTVSPost2010PropOp52
 70
     0
102
RTVSPost2010Prop53
 90
        2
102
RTVSPost2010PropOp53
 70
     1
102
RTVSPost2010Prop54
  1
strokes_ogs.tif
102
RTVSPost2010PropOp54
 70
     1
102
RTVSPost2010Prop55
280
     0
102
RTVSPost2010PropOp55
 70
     1
102
RTVSPost2010Prop56
140
1.0
102
RTVSPost2010PropOp56
 70
     1
102
RTVSPost2010Prop57
140
1.0
102
RTVSPost2010PropOp57
 70
     1
102
RTVSPropertyOp0
 70
     1
102
RTVSPropertyOp1
 70
     1
102
RTVSPropertyOp2
 70
     1
102
RTVSPropertyOp3
 70
     1
102
RTVSPropertyOp4
 70
     1
102
RTVSPropertyOp5
 70
     1
102
RTVSPropertyOp6
 70
     1
102
RTVSPropertyOp7
 70
     1
102
RTVSPropertyOp8
 70
     1
102
RTVSPropertyOp9
 70
     1
102
RTVSPropertyOp10
 70
     1
102
RTVSPropertyOp11
 70
     1
102
RTVSPropertyOp12
 70
     1
102
RTVSPropertyOp13
 70
     1
102
RTVSPropertyOp14
 70
     1
102
RTVSPropertyOp15
 70
     1
102
RTVSPropertyOp16
 70
     1
102
RTVSPropertyOp17
 70
     1
102
RTVSPropertyOp18
 70
     1
102
RTVSPropertyOp19
 70
     1
102
RTVSPropertyOp20
 70
     1
102
RTVSPropertyOp21
 70
     1
102
RTVSPropertyOp22
 70
     1
102
RTVSPropertyOp23
 70
     1
102
RTVSPropertyOp24
 70
     1
102
RTVSPropertyOp25
 70
     1
102
RTVSPropertyOp26
 70
     1
102
RTVSPropertyOp27
 70
     1
102
RTVSPropertyOp28
 70
     1
102
RTVSPropertyOp29
 70
     1
102
RTVSPropertyOp30
 70
     1
102
RTVSPropertyOp31
 70
     1
102
RTVSPropertyOp32
 70
     1
102
RTVSPropertyOp33
 70
     1
102
RTVSPropertyOp34
 70
     1
102
RTVSPropertyOp35
 70
     1
102
RTVSPropertyOp36
 70
     1
102
RTVSPropertyOp37
 70
     1
102
RTVSPropertyOp38
 70
     1
102
RTVSPropertyOp39
 70
     1
102
RTVSPropertyOp40
 70
     1
102
RTVSPropertyOp41
 70
     1
102
RTVSPropertyOp42
 70
     1
102
RTVSPropertyOp43
 70
     1
102
RTVSPropertyOp44
 70
     1
102
RTVSPropertyOp45
 70
     1
102
RTVSPropertyOp46
 70
     1
102
RTVSPropertyOp47
 70
     1
102
RTVSPropertyOp48
 70
     1
102
RTVSPropertyOp49
 70
     1
102
RTVSPropertyOp50
 70
     1
102
RTVSPropertyOp51
 70
     0
102
RTVSPropertyOp52
 70
     0
102
RTVSPropertyOp53
 70
     1
102
RTVSPropertyOp54
 70
     1
102
RTVSPropertyOp55
 70
     1
102
RTVSPropertyOp56
 70
     1
102
RTVSPropertyOp57
 70
     1
102
RTVSPropertyOp58
 70
     1
102
RTVSPropertyOp59
 70
     1
102
RTVSPropertyOp60
 70
     1
102
RTVSPropertyOp61
 70
     1
102
RTVSPropertyOp62
 70
     1
  0
XRECORD
  5
2BED
102
{ACAD_REACTORS
330
2BEC
102
}
330
2BEC
100
AcDbXrecord
280
     1
102
RTVSPost2010Prop28
280
     0
102
RTVSPost2010PropOp28
 70
     1
102
RTVSPost2010Prop29
280
     1
102
RTVSPost2010PropOp29
 70
     1
102
RTVSPost2010Prop30
280
     1
102
RTVSPost2010PropOp30
 70
     1
102
RTVSPost2010Prop31
280
     0
102
RTVSPost2010PropOp31
 70
     1
102
RTVSPost2010Prop32
280
     0
102
RTVSPost2010PropOp32
 70
     1
102
RTVSPost2010Prop33
280
     0
102
RTVSPost2010PropOp33
 70
     1
102
RTVSPost2010Prop34
280
     0
102
RTVSPost2010PropOp34
 70
     1
102
RTVSPost2010Prop35
280
     0
102
RTVSPost2010PropOp35
 70
     1
102
RTVSPost2010Prop36
280
     0
102
RTVSPost2010PropOp36
 70
     1
102
RTVSPost2010Prop37
 90
       50
102
RTVSPost2010PropOp37
 70
     1
102
RTVSPost2010Prop38
140
0.0
102
RTVSPost2010PropOp38
 70
     1
102
RTVSPost2010Prop39
140
1.0
102
RTVSPost2010PropOp39
 70
     1
102
RTVSPost2010Prop40
 90
        0
102
RTVSPost2010PropOp40
 70
     1
102
RTVSPost2010Prop41ColorIndex
 90
       18
102
RTVSPost2010Prop41ColorRGB
 90
        0
102
RTVSPost2010PropOp41
 70
     1
102
RTVSPost2010Prop42
 90
       50
102
RTVSPost2010PropOp42
 70
     1
102
RTVSPost2010Prop43
 90
        3
102
RTVSPost2010PropOp43
 70
     1
102
RTVSPost2010Prop44ColorIndex
 90
        5
102
RTVSPost2010Prop44ColorRGB
 90
      255
102
RTVSPost2010PropOp44
 70
     1
102
RTVSPost2010Prop45
280
     0
102
RTVSPost2010PropOp45
 70
     1
102
RTVSPost2010Prop46
 90
       50
102
RTVSPost2010PropOp46
 70
     1
102
RTVSPost2010Prop47
 90
       50
102
RTVSPost2010PropOp47
 70
     1
102
RTVSPost2010Prop48
 90
       50
102
RTVSPost2010PropOp48
 70
     1
102
RTVSPost2010Prop49
280
     0
102
RTVSPost2010PropOp49
 70
     1
102
RTVSPost2010Prop50
 90
       50
102
RTVSPost2010PropOp50
 70
     1
102
RTVSPost2010Prop51ColorIndex
 90
      256
102
RTVSPost2010Prop51ColorRGB
 90
-16777216
102
RTVSPost2010PropOp51
 70
     0
102
RTVSPost2010Prop52
140
1.0
102
RTVSPost2010PropOp52
 70
     0
102
RTVSPost2010Prop53
 90
        2
102
RTVSPost2010PropOp53
 70
     1
102
RTVSPost2010Prop54
  1
strokes_ogs.tif
102
RTVSPost2010PropOp54
 70
     1
102
RTVSPost2010Prop55
280
     0
102
RTVSPost2010PropOp55
 70
     1
102
RTVSPost2010Prop56
140
1.0
102
RTVSPost2010PropOp56
 70
     1
102
RTVSPost2010Prop57
140
1.0
102
RTVSPost2010PropOp57
 70
     1
102
RTVSPropertyOp0
 70
     1
102
RTVSPropertyOp1
 70
     1
102
RTVSPropertyOp2
 70
     1
102
RTVSPropertyOp3
 70
     1
102
RTVSPropertyOp4
 70
     1
102
RTVSPropertyOp5
 70
     1
102
RTVSPropertyOp6
 70
     1
102
RTVSPropertyOp7
 70
     1
102
RTVSPropertyOp8
 70
     1
102
RTVSPropertyOp9
 70
     1
102
RTVSPropertyOp10
 70
     1
102
RTVSPropertyOp11
 70
     1
102
RTVSPropertyOp12
 70
     1
102
RTVSPropertyOp13
 70
     1
102
RTVSPropertyOp14
 70
     1
102
RTVSPropertyOp15
 70
     1
102
RTVSPropertyOp16
 70
     1
102
RTVSPropertyOp17
 70
     1
102
RTVSPropertyOp18
 70
     1
102
RTVSPropertyOp19
 70
     1
102
RTVSPropertyOp20
 70
     1
102
RTVSPropertyOp21
 70
     1
102
RTVSPropertyOp22
 70
     1
102
RTVSPropertyOp23
 70
     1
102
RTVSPropertyOp24
 70
     1
102
RTVSPropertyOp25
 70
     1
102
RTVSPropertyOp26
 70
     1
102
RTVSPropertyOp27
 70
     1
102
RTVSPropertyOp28
 70
     1
102
RTVSPropertyOp29
 70
     1
102
RTVSPropertyOp30
 70
     1
102
RTVSPropertyOp31
 70
     1
102
RTVSPropertyOp32
 70
     1
102
RTVSPropertyOp33
 70
     1
102
RTVSPropertyOp34
 70
     1
102
RTVSPropertyOp35
 70
     1
102
RTVSPropertyOp36
 70
     1
102
RTVSPropertyOp37
 70
     1
102
RTVSPropertyOp38
 70
     1
102
RTVSPropertyOp39
 70
     1
102
RTVSPropertyOp40
 70
     1
102
RTVSPropertyOp41
 70
     1
102
RTVSPropertyOp42
 70
     1
102
RTVSPropertyOp43
 70
     1
102
RTVSPropertyOp44
 70
     1
102
RTVSPropertyOp45
 70
     1
102
RTVSPropertyOp46
 70
     1
102
RTVSPropertyOp47
 70
     1
102
RTVSPropertyOp48
 70
     1
102
RTVSPropertyOp49
 70
     1
102
RTVSPropertyOp50
 70
     1
102
RTVSPropertyOp51
 70
     0
102
RTVSPropertyOp52
 70
     0
102
RTVSPropertyOp53
 70
     1
102
RTVSPropertyOp54
 70
     1
102
RTVSPropertyOp55
 70
     1
102
RTVSPropertyOp56
 70
     1
102
RTVSPropertyOp57
 70
     1
102
RTVSPropertyOp58
 70
     1
102
RTVSPropertyOp59
 70
     1
102
RTVSPropertyOp60
 70
     1
102
RTVSPropertyOp61
 70
     1
102
RTVSPropertyOp62
 70
     1
  0
ACDBASSOCARRAYACTIONBODY
  5
2B27
330
2B26
100
AcDbAssocActionBody
 90
        1
100
AcDbAssocParamBasedActionBody
 90
        0
 90
        0
 90
        3
360
2B28
360
2B29
360
2B2D
 90
        0
 90
        9
 90
        0
  1
AlignItems
 90
        0
 90
        1
 90
        0
330
0
330
0
 90
        0
  1
AxesAngle
 90
        2
 90
        1
 40
1.570796326794896
330
0
330
0
 90
        0
  1
ItemSpacing
 90
        1
 90
        1
 40
30.0
330
0
330
0
 90
        0
  1
Items
 90
        0
 90
        1
 90
       33
330
0
330
0
 90
        0
  1
LevelSpacing
 90
        1
 90
        1
 40
1.0
330
0
330
0
 90
        0
  1
Levels
 90
        0
 90
        1
 90
        1
330
0
330
0
 90
        0
  1
RowElevation
 90
        1
 90
        1
 40
0.0
330
0
330
0
 90
        0
  1
RowSpacing
 90
        1
 90
        1
 40
75.0
330
0
330
0
 90
        0
  1
Rows
 90
        0
 90
        1
 90
        1
330
0
330
0
100
AcDbAssocArrayActionBody
 90
        1
  1
AcDbAssocArrayRectangularParameters
 90
        0
 90
       33
  1
AcDbAssocArrayItem
100
AcDbAssocArrayItem
 90
        0
 90
        0
 90
        0
 90
        0
 90
        8
 11
0.0
 21
0.0
 31
0.0
330
2B2F
100
AcDbAssocArrayItem
 90
        0
 90
        1
 90
        0
 90
        0
 90
        8
 11
30.0
 21
0.0
 31
0.0
330
2B30
100
AcDbAssocArrayItem
 90
        0
 90
        2
 90
        0
 90
        0
 90
        8
 11
60.0
 21
0.0
 31
0.0
330
2B31
100
AcDbAssocArrayItem
 90
        0
 90
        3
 90
        0
 90
        0
 90
        8
 11
90.0
 21
0.0
 31
0.0
330
2B32
100
AcDbAssocArrayItem
 90
        0
 90
        4
 90
        0
 90
        0
 90
        8
 11
120.0
 21
0.0
 31
0.0
330
2B33
100
AcDbAssocArrayItem
 90
        0
 90
        5
 90
        0
 90
        0
 90
        8
 11
150.0
 21
0.0
 31
0.0
330
2B34
100
AcDbAssocArrayItem
 90
        0
 90
        6
 90
        0
 90
        0
 90
        8
 11
180.0
 21
0.0
 31
0.0
330
2B35
100
AcDbAssocArrayItem
 90
        0
 90
        7
 90
        0
 90
        0
 90
        8
 11
210.0
 21
0.0
 31
0.0
330
2B36
100
AcDbAssocArrayItem
 90
        0
 90
        8
 90
        0
 90
        0
 90
        8
 11
240.0
 21
0.0
 31
0.0
330
2B37
100
AcDbAssocArrayItem
 90
        0
 90
        9
 90
        0
 90
        0
 90
        8
 11
270.0
 21
0.0
 31
0.0
330
2B38
100
AcDbAssocArrayItem
 90
        0
 90
       10
 90
        0
 90
        0
 90
        8
 11
300.0
 21
0.0
 31
0.0
330
2B39
100
AcDbAssocArrayItem
 90
        0
 90
       11
 90
        0
 90
        0
 90
        8
 11
330.0
 21
0.0
 31
0.0
330
2B3A
100
AcDbAssocArrayItem
 90
        0
 90
       12
 90
        0
 90
        0
 90
        8
 11
360.0
 21
0.0
 31
0.0
330
2B3B
100
AcDbAssocArrayItem
 90
        0
 90
       13
 90
        0
 90
        0
 90
        8
 11
390.0
 21
0.0
 31
0.0
330
2B3C
100
AcDbAssocArrayItem
 90
        0
 90
       14
 90
        0
 90
        0
 90
        8
 11
420.0
 21
0.0
 31
0.0
330
2B3D
100
AcDbAssocArrayItem
 90
        0
 90
       15
 90
        0
 90
        0
 90
        8
 11
450.0
 21
0.0
 31
0.0
330
2B3E
100
AcDbAssocArrayItem
 90
        0
 90
       16
 90
        0
 90
        0
 90
        8
 11
480.0
 21
0.0
 31
0.0
330
2B3F
100
AcDbAssocArrayItem
 90
        0
 90
       17
 90
        0
 90
        0
 90
        8
 11
510.0
 21
0.0
 31
0.0
330
2B40
100
AcDbAssocArrayItem
 90
        0
 90
       18
 90
        0
 90
        0
 90
        8
 11
540.0
 21
0.0
 31
0.0
330
2B41
100
AcDbAssocArrayItem
 90
        0
 90
       19
 90
        0
 90
        0
 90
        8
 11
570.0
 21
0.0
 31
0.0
330
2B42
100
AcDbAssocArrayItem
 90
        0
 90
       20
 90
        0
 90
        0
 90
        8
 11
600.0
 21
0.0
 31
0.0
330
2B43
100
AcDbAssocArrayItem
 90
        0
 90
       21
 90
        0
 90
        0
 90
        8
 11
630.0
 21
0.0
 31
0.0
330
2B44
100
AcDbAssocArrayItem
 90
        0
 90
       22
 90
        0
 90
        0
 90
        8
 11
660.0
 21
0.0
 31
0.0
330
2B45
100
AcDbAssocArrayItem
 90
        0
 90
       23
 90
        0
 90
        0
 90
        8
 11
690.0
 21
0.0
 31
0.0
330
2B46
100
AcDbAssocArrayItem
 90
        0
 90
       24
 90
        0
 90
        0
 90
        8
 11
720.0
 21
0.0
 31
0.0
330
2B47
100
AcDbAssocArrayItem
 90
        0
 90
       25
 90
        0
 90
        0
 90
        8
 11
750.0
 21
0.0
 31
0.0
330
2B48
100
AcDbAssocArrayItem
 90
        0
 90
       26
 90
        0
 90
        0
 90
        8
 11
780.0
 21
0.0
 31
0.0
330
2B49
100
AcDbAssocArrayItem
 90
        0
 90
       27
 90
        0
 90
        0
 90
        8
 11
810.0
 21
0.0
 31
0.0
330
2B4A
100
AcDbAssocArrayItem
 90
        0
 90
       28
 90
        0
 90
        0
 90
        8
 11
840.0
 21
0.0
 31
0.0
330
2B4B
100
AcDbAssocArrayItem
 90
        0
 90
       29
 90
        0
 90
        0
 90
        8
 11
870.0
 21
0.0
 31
0.0
330
2B4C
100
AcDbAssocArrayItem
 90
        0
 90
       30
 90
        0
 90
        0
 90
        8
 11
900.0
 21
0.0
 31
0.0
330
2B4D
100
AcDbAssocArrayItem
 90
        0
 90
       31
 90
        0
 90
        0
 90
        8
 11
930.0
 21
0.0
 31
0.0
330
2B4E
100
AcDbAssocArrayItem
 90
        0
 90
       32
 90
        0
 90
        0
 90
        8
 11
960.0
 21
0.0
 31
0.0
330
2B4F
 40
1.0
 40
0.0
 40
0.0
 40
217.3943726623066
 40
0.0
 40
1.0
 40
0.0
 40
1448.654660416729
 40
0.0
 40
0.0
 40
1.0
 40
0.0
 40
0.0
 40
0.0
 40
0.0
 40
1.0
  0
ACDBASSOCDEPENDENCY
  5
2B2A
330
2B26
100
AcDbAssocDependency
 90
        2
 90
        1
290
     0
290
     1
290
     1
290
     1
 90
        0
330
2AF0
290
     0
330
0
330
0
360
0
 90
        1
  0
ACDBASSOCDEPENDENCY
  5
2B2B
330
2B26
100
AcDbAssocDependency
 90
        2
 90
        1
290
     1
290
     0
290
     1
290
     1
 90
        0
330
2AED
290
     0
330
0
330
0
360
0
 90
        2
  0
ACDBASSOCDEPENDENCY
  5
2B2C
330
2B26
100
AcDbAssocDependency
 90
        2
 90
        0
290
     1
290
     1
290
     1
290
     1
 90
-2147483648
330
2AF3
290
     0
330
0
330
0
360
0
 90
        3
  0
ACDBASSOCARRAYACTIONBODY
  5
2B75
330
2B74
100
AcDbAssocActionBody
 90
        1
100
AcDbAssocParamBasedActionBody
 90
        0
 90
        0
 90
        3
360
2B76
360
2B77
360
2B7B
 90
        0
 90
        9
 90
        0
  1
AlignItems
 90
        0
 90
        1
 90
        0
330
0
330
0
 90
        0
  1
AxesAngle
 90
        2
 90
        1
 40
1.570796326794896
330
0
330
0
 90
        0
  1
ItemSpacing
 90
        1
 90
        1
 40
15.0
330
0
330
0
 90
        0
  1
Items
 90
        0
 90
        1
 90
       65
330
0
330
0
 90
        0
  1
LevelSpacing
 90
        1
 90
        1
 40
1.0
330
0
330
0
 90
        0
  1
Levels
 90
        0
 90
        1
 90
        1
330
0
330
0
 90
        0
  1
RowElevation
 90
        1
 90
        1
 40
0.0
330
0
330
0
 90
        0
  1
RowSpacing
 90
        1
 90
        1
 40
916.5
330
0
330
0
 90
        0
  1
Rows
 90
        0
 90
        1
 90
        1
330
0
330
0
100
AcDbAssocArrayActionBody
 90
        1
  1
AcDbAssocArrayRectangularParameters
 90
        0
 90
       65
  1
AcDbAssocArrayItem
100
AcDbAssocArrayItem
 90
        0
 90
        0
 90
        0
 90
        0
 90
        8
 11
0.0
 21
0.0
 31
0.0
330
2B7D
100
AcDbAssocArrayItem
 90
        0
 90
        1
 90
        0
 90
        0
 90
        8
 11
15.0
 21
0.0
 31
0.0
330
2B7E
100
AcDbAssocArrayItem
 90
        0
 90
        2
 90
        0
 90
        0
 90
        8
 11
30.0
 21
0.0
 31
0.0
330
2B7F
100
AcDbAssocArrayItem
 90
        0
 90
        3
 90
        0
 90
        0
 90
        8
 11
45.0
 21
0.0
 31
0.0
330
2B80
100
AcDbAssocArrayItem
 90
        0
 90
        4
 90
        0
 90
        0
 90
        8
 11
60.0
 21
0.0
 31
0.0
330
2B81
100
AcDbAssocArrayItem
 90
        0
 90
        5
 90
        0
 90
        0
 90
        8
 11
75.0
 21
0.0
 31
0.0
330
2B82
100
AcDbAssocArrayItem
 90
        0
 90
        6
 90
        0
 90
        0
 90
        8
 11
90.0
 21
0.0
 31
0.0
330
2B83
100
AcDbAssocArrayItem
 90
        0
 90
        7
 90
        0
 90
        0
 90
        8
 11
105.0
 21
0.0
 31
0.0
330
2B84
100
AcDbAssocArrayItem
 90
        0
 90
        8
 90
        0
 90
        0
 90
        8
 11
120.0
 21
0.0
 31
0.0
330
2B85
100
AcDbAssocArrayItem
 90
        0
 90
        9
 90
        0
 90
        0
 90
        8
 11
135.0
 21
0.0
 31
0.0
330
2B86
100
AcDbAssocArrayItem
 90
        0
 90
       10
 90
        0
 90
        0
 90
        8
 11
150.0
 21
0.0
 31
0.0
330
2B87
100
AcDbAssocArrayItem
 90
        0
 90
       11
 90
        0
 90
        0
 90
        8
 11
165.0
 21
0.0
 31
0.0
330
2B88
100
AcDbAssocArrayItem
 90
        0
 90
       12
 90
        0
 90
        0
 90
        8
 11
180.0
 21
0.0
 31
0.0
330
2B89
100
AcDbAssocArrayItem
 90
        0
 90
       13
 90
        0
 90
        0
 90
        8
 11
195.0
 21
0.0
 31
0.0
330
2B8A
100
AcDbAssocArrayItem
 90
        0
 90
       14
 90
        0
 90
        0
 90
        8
 11
210.0
 21
0.0
 31
0.0
330
2B8B
100
AcDbAssocArrayItem
 90
        0
 90
       15
 90
        0
 90
        0
 90
        8
 11
225.0
 21
0.0
 31
0.0
330
2B8C
100
AcDbAssocArrayItem
 90
        0
 90
       16
 90
        0
 90
        0
 90
        8
 11
240.0
 21
0.0
 31
0.0
330
2B8D
100
AcDbAssocArrayItem
 90
        0
 90
       17
 90
        0
 90
        0
 90
        8
 11
255.0
 21
0.0
 31
0.0
330
2B8E
100
AcDbAssocArrayItem
 90
        0
 90
       18
 90
        0
 90
        0
 90
        8
 11
270.0
 21
0.0
 31
0.0
330
2B8F
100
AcDbAssocArrayItem
 90
        0
 90
       19
 90
        0
 90
        0
 90
        8
 11
285.0
 21
0.0
 31
0.0
330
2B90
100
AcDbAssocArrayItem
 90
        0
 90
       20
 90
        0
 90
        0
 90
        8
 11
300.0
 21
0.0
 31
0.0
330
2B91
100
AcDbAssocArrayItem
 90
        0
 90
       21
 90
        0
 90
        0
 90
        8
 11
315.0
 21
0.0
 31
0.0
330
2B92
100
AcDbAssocArrayItem
 90
        0
 90
       22
 90
        0
 90
        0
 90
        8
 11
330.0
 21
0.0
 31
0.0
330
2B93
100
AcDbAssocArrayItem
 90
        0
 90
       23
 90
        0
 90
        0
 90
        8
 11
345.0
 21
0.0
 31
0.0
330
2B94
100
AcDbAssocArrayItem
 90
        0
 90
       24
 90
        0
 90
        0
 90
        8
 11
360.0
 21
0.0
 31
0.0
330
2B95
100
AcDbAssocArrayItem
 90
        0
 90
       25
 90
        0
 90
        0
 90
        8
 11
375.0
 21
0.0
 31
0.0
330
2B96
100
AcDbAssocArrayItem
 90
        0
 90
       26
 90
        0
 90
        0
 90
        8
 11
390.0
 21
0.0
 31
0.0
330
2B97
100
AcDbAssocArrayItem
 90
        0
 90
       27
 90
        0
 90
        0
 90
        8
 11
405.0
 21
0.0
 31
0.0
330
2B98
100
AcDbAssocArrayItem
 90
        0
 90
       28
 90
        0
 90
        0
 90
        8
 11
420.0
 21
0.0
 31
0.0
330
2B99
100
AcDbAssocArrayItem
 90
        0
 90
       29
 90
        0
 90
        0
 90
        8
 11
435.0
 21
0.0
 31
0.0
330
2B9A
100
AcDbAssocArrayItem
 90
        0
 90
       30
 90
        0
 90
        0
 90
        8
 11
450.0
 21
0.0
 31
0.0
330
2B9B
100
AcDbAssocArrayItem
 90
        0
 90
       31
 90
        0
 90
        0
 90
        8
 11
465.0
 21
0.0
 31
0.0
330
2B9C
100
AcDbAssocArrayItem
 90
        0
 90
       32
 90
        0
 90
        0
 90
        8
 11
480.0
 21
0.0
 31
0.0
330
2B9D
100
AcDbAssocArrayItem
 90
        0
 90
       33
 90
        0
 90
        0
 90
        8
 11
495.0
 21
0.0
 31
0.0
330
2B9E
100
AcDbAssocArrayItem
 90
        0
 90
       34
 90
        0
 90
        0
 90
        8
 11
510.0
 21
0.0
 31
0.0
330
2B9F
100
AcDbAssocArrayItem
 90
        0
 90
       35
 90
        0
 90
        0
 90
        8
 11
525.0
 21
0.0
 31
0.0
330
2BA0
100
AcDbAssocArrayItem
 90
        0
 90
       36
 90
        0
 90
        0
 90
        8
 11
540.0
 21
0.0
 31
0.0
330
2BA1
100
AcDbAssocArrayItem
 90
        0
 90
       37
 90
        0
 90
        0
 90
        8
 11
555.0
 21
0.0
 31
0.0
330
2BA2
100
AcDbAssocArrayItem
 90
        0
 90
       38
 90
        0
 90
        0
 90
        8
 11
570.0
 21
0.0
 31
0.0
330
2BA3
100
AcDbAssocArrayItem
 90
        0
 90
       39
 90
        0
 90
        0
 90
        8
 11
585.0
 21
0.0
 31
0.0
330
2BA4
100
AcDbAssocArrayItem
 90
        0
 90
       40
 90
        0
 90
        0
 90
        8
 11
600.0
 21
0.0
 31
0.0
330
2BA5
100
AcDbAssocArrayItem
 90
        0
 90
       41
 90
        0
 90
        0
 90
        8
 11
615.0
 21
0.0
 31
0.0
330
2BA6
100
AcDbAssocArrayItem
 90
        0
 90
       42
 90
        0
 90
        0
 90
        8
 11
630.0
 21
0.0
 31
0.0
330
2BA7
100
AcDbAssocArrayItem
 90
        0
 90
       43
 90
        0
 90
        0
 90
        8
 11
645.0
 21
0.0
 31
0.0
330
2BA8
100
AcDbAssocArrayItem
 90
        0
 90
       44
 90
        0
 90
        0
 90
        8
 11
660.0
 21
0.0
 31
0.0
330
2BA9
100
AcDbAssocArrayItem
 90
        0
 90
       45
 90
        0
 90
        0
 90
        8
 11
675.0
 21
0.0
 31
0.0
330
2BAA
100
AcDbAssocArrayItem
 90
        0
 90
       46
 90
        0
 90
        0
 90
        8
 11
690.0
 21
0.0
 31
0.0
330
2BAB
100
AcDbAssocArrayItem
 90
        0
 90
       47
 90
        0
 90
        0
 90
        8
 11
705.0
 21
0.0
 31
0.0
330
2BAC
100
AcDbAssocArrayItem
 90
        0
 90
       48
 90
        0
 90
        0
 90
        8
 11
720.0
 21
0.0
 31
0.0
330
2BAD
100
AcDbAssocArrayItem
 90
        0
 90
       49
 90
        0
 90
        0
 90
        8
 11
735.0
 21
0.0
 31
0.0
330
2BAE
100
AcDbAssocArrayItem
 90
        0
 90
       50
 90
        0
 90
        0
 90
        8
 11
750.0
 21
0.0
 31
0.0
330
2BAF
100
AcDbAssocArrayItem
 90
        0
 90
       51
 90
        0
 90
        0
 90
        8
 11
765.0
 21
0.0
 31
0.0
330
2BB0
100
AcDbAssocArrayItem
 90
        0
 90
       52
 90
        0
 90
        0
 90
        8
 11
780.0
 21
0.0
 31
0.0
330
2BB1
100
AcDbAssocArrayItem
 90
        0
 90
       53
 90
        0
 90
        0
 90
        8
 11
795.0
 21
0.0
 31
0.0
330
2BB2
100
AcDbAssocArrayItem
 90
        0
 90
       54
 90
        0
 90
        0
 90
        8
 11
810.0
 21
0.0
 31
0.0
330
2BB3
100
AcDbAssocArrayItem
 90
        0
 90
       55
 90
        0
 90
        0
 90
        8
 11
825.0
 21
0.0
 31
0.0
330
2BB4
100
AcDbAssocArrayItem
 90
        0
 90
       56
 90
        0
 90
        0
 90
        8
 11
840.0
 21
0.0
 31
0.0
330
2BB5
100
AcDbAssocArrayItem
 90
        0
 90
       57
 90
        0
 90
        0
 90
        8
 11
855.0
 21
0.0
 31
0.0
330
2BB6
100
AcDbAssocArrayItem
 90
        0
 90
       58
 90
        0
 90
        0
 90
        8
 11
870.0
 21
0.0
 31
0.0
330
2BB7
100
AcDbAssocArrayItem
 90
        0
 90
       59
 90
        0
 90
        0
 90
        8
 11
885.0
 21
0.0
 31
0.0
330
2BB8
100
AcDbAssocArrayItem
 90
        0
 90
       60
 90
        0
 90
        0
 90
        8
 11
900.0
 21
0.0
 31
0.0
330
2BB9
100
AcDbAssocArrayItem
 90
        0
 90
       61
 90
        0
 90
        0
 90
        8
 11
915.0
 21
0.0
 31
0.0
330
2BBA
100
AcDbAssocArrayItem
 90
        0
 90
       62
 90
        0
 90
        0
 90
        8
 11
930.0
 21
0.0
 31
0.0
330
2BBB
100
AcDbAssocArrayItem
 90
        0
 90
       63
 90
        0
 90
        0
 90
        8
 11
945.0
 21
0.0
 31
0.0
330
2BBC
100
AcDbAssocArrayItem
 90
        0
 90
       64
 90
        0
 90
        0
 90
        8
 11
960.0
 21
0.0
 31
0.0
330
2BBD
 40
1.0
 40
0.0
 40
0.0
 40
224.8943726623065
 40
0.0
 40
1.0
 40
0.0
 40
619.3243361689057
 40
0.0
 40
0.0
 40
1.0
 40
0.0
 40
0.0
 40
0.0
 40
0.0
 40
1.0
  0
ACDBASSOCDEPENDENCY
  5
2B78
330
2B74
100
AcDbAssocDependency
 90
        2
 90
        1
290
     0
290
     1
290
     1
290
     1
 90
        0
330
2B54
290
     0
330
0
330
0
360
0
 90
        1
  0
ACDBASSOCDEPENDENCY
  5
2B79
330
2B74
100
AcDbAssocDependency
 90
        2
 90
        1
290
     1
290
     0
290
     1
290
     1
 90
        0
330
2B51
290
     0
330
0
330
0
360
0
 90
        2
  0
ACDBASSOCDEPENDENCY
  5
2B7A
330
2B74
100
AcDbAssocDependency
 90
        2
 90
        0
290
     1
290
     1
290
     1
290
     1
 90
-2147483648
330
2B57
290
     0
330
0
330
0
360
0
 90
        3
  0
ACDBASSOCVERTEXACTIONPARAM
  5
2B28
330
2B27
100
AcDbAssocActionParam
 90
        0
  1
BaseNormal
100
AcDbAssocSingleDependencyActionParam
 90
        0
330
0
100
AcDbAssocVertexActionParam
 90
        0
 10
0.0
 20
0.0
 30
1.0
  0
ACDBASSOCVERTEXACTIONPARAM
  5
2B29
330
2B27
100
AcDbAssocActionParam
 90
        0
  1
Origin
100
AcDbAssocSingleDependencyActionParam
 90
        0
330
0
100
AcDbAssocVertexActionParam
 90
        0
 10
0.0
 20
0.0
 30
0.0
  0
ACDBASSOCVERTEXACTIONPARAM
  5
2B2D
330
2B27
100
AcDbAssocActionParam
 90
        0
  1
basePoint
100
AcDbAssocSingleDependencyActionParam
 90
        0
330
0
100
AcDbAssocVertexActionParam
 90
        0
 10
0.0
 20
0.0
 30
0.0
  0
ACDBASSOCVERTEXACTIONPARAM
  5
2B76
330
2B75
100
AcDbAssocActionParam
 90
        0
  1
BaseNormal
100
AcDbAssocSingleDependencyActionParam
 90
        0
330
0
100
AcDbAssocVertexActionParam
 90
        0
 10
0.0
 20
0.0
 30
1.0
  0
ACDBASSOCVERTEXACTIONPARAM
  5
2B77
330
2B75
100
AcDbAssocActionParam
 90
        0
  1
Origin
100
AcDbAssocSingleDependencyActionParam
 90
        0
330
0
100
AcDbAssocVertexActionParam
 90
        0
 10
0.0
 20
0.0
 30
0.0
  0
ACDBASSOCVERTEXACTIONPARAM
  5
2B7B
330
2B75
100
AcDbAssocActionParam
 90
        0
  1
basePoint
100
AcDbAssocSingleDependencyActionParam
 90
        0
330
0
100
AcDbAssocVertexActionParam
 90
        0
 10
0.0
 20
0.0
 30
0.0
  0
ENDSEC
  0
EOF
